<?xml version="1.0" standalone="no"?>
<!DOCTYPE svg PUBLIC "-//W3C//DTD SVG 1.1//EN" "http://www.w3.org/Graphics/SVG/1.1/DTD/svg11.dtd" >
<svg xmlns="http://www.w3.org/2000/svg" xmlns:xlink="http://www.w3.org/1999/xlink" version="1.1">
<metadata></metadata>
<defs>
<font id="fontawesomeregular" horiz-adv-x="1755" >
<font-face units-per-em="2048" ascent="1755" descent="-293" />
<missing-glyph horiz-adv-x="512" />
<glyph horiz-adv-x="0" />
<glyph horiz-adv-x="682" />
<glyph unicode=" "  horiz-adv-x="512" />
<glyph unicode="&#x09;" horiz-adv-x="512" />
<glyph unicode="&#xa0;" horiz-adv-x="512" />
<glyph unicode="&#x25fc;" horiz-adv-x="571" d="M0 0z" />
<glyph unicode="&#xf002;" horiz-adv-x="1901" d="M1317 805q0 211 -150.5 361.5t-361.5 150.5t-361.5 -150.5t-150.5 -361.5t150.5 -361.5t361.5 -150.5t361.5 150.5t150.5 361.5zM1902 -146q0 -60 -43.5 -103.5t-103.5 -43.5t-102 44l-392 391q-205 -142 -456 -142q-164 0 -313 63.5t-257 171.5t-171.5 257t-63.5 313 t63.5 313t171.5 256.5t257 171t313 63.5t313 -63.5t256.5 -171t171 -256.5t63.5 -313q0 -251 -142 -456l392 -392q43 -43 43 -103z" />
<glyph unicode="&#xf00c;" horiz-adv-x="2048" d="M1910 1109q0 -46 -32 -78l-828 -828l-155 -155q-32 -32 -78 -32t-78 32l-155 155l-414 414q-32 32 -32 78t32 78l156 155q32 32 77 32q46 0 78 -32l336 -337l750 751q32 32 78 32q45 0 77 -32l156 -156q32 -32 32 -77z" />
<glyph unicode="&#xf00d;" horiz-adv-x="1609" d="M1483 245q0 -46 -32 -78l-155 -156q-32 -32 -78 -32q-45 0 -77 32l-336 336l-336 -336q-32 -32 -78 -32t-78 32l-155 156q-32 32 -32 78q0 45 32 77l336 336l-336 336q-32 32 -32 78t32 78l155 155q32 32 78 32t78 -32l336 -336l336 336q32 32 77 32q46 0 78 -32 l155 -155q32 -32 32 -78t-32 -78l-336 -336l336 -336q32 -32 32 -77z" />
<glyph unicode="&#xf046;" horiz-adv-x="1901" d="M1609 693v-364q0 -137 -96.5 -233t-232.5 -96h-951q-137 0 -233 96t-96 233v951q0 136 96 232.5t233 96.5h951q72 0 134 -28q17 -8 20 -27q3 -20 -10 -33l-56 -56q-11 -11 -26 -11q-5 0 -11 2q-24 7 -51 7h-951q-76 0 -129.5 -53.5t-53.5 -129.5v-951q0 -76 53.5 -129.5 t129.5 -53.5h951q76 0 129.5 53.5t53.5 129.5v290q0 16 10 26l73 73q11 11 27 11q6 0 13 -3q23 -10 23 -33zM1873 1251l-930 -930q-28 -28 -65 -28t-65 28l-492 492q-28 28 -28 65t28 65l126 126q28 28 65 28t65 -28l301 -301l739 739q28 28 65 28t65 -28l126 -125 q28 -28 28 -65.5t-28 -65.5z" />
<glyph unicode="&#xf053;" horiz-adv-x="1462" d="M1338 1411l-607 -606l607 -607q22 -22 22 -51.5t-22 -51.5l-189 -190q-22 -22 -51.5 -22t-51.5 22l-848 848q-22 22 -22 51.5t22 51.5l848 848q22 22 51.5 22t51.5 -22l189 -190q22 -22 22 -51.5t-22 -51.5z" />
<glyph unicode="&#xf054;" horiz-adv-x="1462" d="M1265 753l-848 -848q-22 -22 -51.5 -22t-51.5 22l-189 190q-22 22 -22 51.5t22 51.5l606 607l-606 606q-22 22 -22 51.5t22 51.5l189 190q22 22 51.5 22t51.5 -22l848 -848q22 -22 22 -51.5t-22 -51.5z" />
<glyph unicode="&#xf055;" d="M1390 658v147q0 30 -21.5 51.5t-51.5 21.5h-293v292q0 30 -21.5 51.5t-51.5 21.5h-146q-30 0 -52 -21.5t-22 -51.5v-292h-292q-30 0 -51.5 -21.5t-21.5 -51.5v-147q0 -30 21.5 -51.5t51.5 -21.5h292v-292q0 -30 22 -52t52 -22h146q30 0 51.5 22t21.5 52v292h293 q30 0 51.5 21.5t21.5 51.5zM1755 731q0 -179 -69.5 -341.5t-186.5 -279.5t-279.5 -186.5t-341.5 -69.5t-341.5 69.5t-280 186.5t-187 279.5t-69.5 341.5t69.5 341.5t187 280t280 187t341.5 69.5t341.5 -69.5t279.5 -187t186.5 -280t69.5 -341.5z" />
<glyph unicode="&#xf056;" d="M1390 658v147q0 30 -21.5 51.5t-51.5 21.5h-878q-30 0 -51.5 -21.5t-21.5 -51.5v-147q0 -30 21.5 -51.5t51.5 -21.5h878q30 0 51.5 21.5t21.5 51.5zM1755 731q0 -179 -69.5 -341.5t-186.5 -279.5t-279.5 -186.5t-341.5 -69.5t-341.5 69.5t-280 186.5t-187 279.5 t-69.5 341.5t69.5 341.5t187 280t280 187t341.5 69.5t341.5 -69.5t279.5 -187t186.5 -280t69.5 -341.5z" />
<glyph unicode="&#xf060;" d="M1755 731v-146q0 -61 -36.5 -103.5t-96.5 -42.5h-805l335 -336q43 -41 43 -103t-43 -103l-86 -87q-42 -42 -103 -42q-60 0 -104 42l-744 745q-42 42 -42 103q0 60 42 104l744 743q44 44 104 44q59 0 103 -44l86 -84q43 -43 43 -104t-43 -104l-335 -335h805q60 0 96.5 -43 t36.5 -104z" />
<glyph unicode="&#xf061;" d="M1682 658q0 -62 -42 -104l-744 -744q-44 -42 -104 -42q-59 0 -103 42l-86 86q-43 43 -43 104t43 104l335 335h-804q-60 0 -97 42.5t-37 103.5v146q0 61 37 104t97 43h804l-335 336q-43 41 -43 103q0 61 43 102l86 86q44 44 103 44q60 0 104 -44l744 -744q42 -40 42 -103z " />
<glyph unicode="&#xf067;" horiz-adv-x="1609" d="M1609 914v-219q0 -46 -32 -78t-78 -32h-475v-475q0 -46 -32 -78t-78 -32h-219q-46 0 -78 32t-32 78v475h-475q-46 0 -78 32t-32 78v219q0 46 32 78t78 32h475v475q0 46 32 78t78 32h219q46 0 78 -32t32 -78v-475h475q46 0 78 -32t32 -78z" />
<glyph unicode="&#xf068;" horiz-adv-x="1609" d="M1609 914v-219q0 -46 -32 -78t-78 -32h-1389q-46 0 -78 32t-32 78v219q0 46 32 78t78 32h1389q46 0 78 -32t32 -78z" />
<glyph unicode="&#xf077;" horiz-adv-x="2048" d="M1923 234l-189 -188q-22 -22 -51.5 -22t-51.5 22l-607 607l-607 -607q-22 -22 -51.5 -22t-51.5 22l-189 188q-22 22 -22 52t22 52l848 847q22 22 51 22t51 -22l848 -847q22 -22 22 -52t-22 -52z" />
<glyph unicode="&#xf078;" horiz-adv-x="2048" d="M1923 832l-848 -847q-22 -22 -51 -22t-51 22l-848 847q-22 22 -22 52t22 52l189 189q22 22 51.5 22t51.5 -22l607 -607l607 607q22 22 51.5 22t51.5 -22l189 -189q22 -22 22 -52t-22 -52z" />
<glyph unicode="&#xf096;" horiz-adv-x="1609" d="M1280 1463h-951q-76 0 -129.5 -53.5t-53.5 -129.5v-951q0 -76 53.5 -129.5t129.5 -53.5h951q76 0 129.5 53.5t53.5 129.5v951q0 76 -53.5 129.5t-129.5 53.5zM1609 1280v-951q0 -137 -96.5 -233t-232.5 -96h-951q-137 0 -233 96t-96 233v951q0 136 96 232.5t233 96.5h951 q136 0 232.5 -96.5t96.5 -232.5z" />
<glyph unicode="&#xf0b0;" horiz-adv-x="1609" d="M1603 1418q19 -47 -16 -80l-563 -563v-848q0 -22 -12.5 -41t-32.5 -27q-15 -5 -28 -5q-32 0 -52 21l-292 293q-22 22 -22 51v556l-563 563q-35 33 -16 80q8 20 26.5 32.5t40.5 12.5h1463q22 0 40.5 -12.5t26.5 -32.5z" />
<glyph unicode="&#xf0c8;" d="M1755 1280v-1097q0 -137 -96.5 -233t-232.5 -96h-1097q-137 0 -233 96t-96 233v1097q0 136 96 232.5t233 96.5h1097q136 0 232.5 -96.5t96.5 -232.5z" />
<glyph unicode="&#xf0d7;" horiz-adv-x="1170" d="M1170 951q0 -31 -21 -52l-512 -512q-21 -21 -52 -21q-30 0 -51 21l-512 512q-22 22 -22 52t21.5 51.5t51.5 21.5h1024q30 0 51.5 -21.5t21.5 -51.5z" />
<glyph unicode="&#xf0d8;" horiz-adv-x="1170" d="M1170 366q0 -30 -21.5 -51.5t-51.5 -21.5h-1024q-30 0 -51.5 21.5t-21.5 51.5q0 29 22 51l512 512q22 22 51 22q30 0 52 -22l512 -512q21 -21 21 -51z" />
<glyph unicode="&#xf0d9;" horiz-adv-x="731" d="M731 1243v-1024q0 -30 -21.5 -51.5t-51.5 -21.5q-29 0 -51 22l-512 512q-22 22 -22 51q0 30 22 52l512 512q22 22 51 22q30 0 51.5 -22t21.5 -52z" />
<glyph unicode="&#xf0da;" horiz-adv-x="731" d="M658 731q0 -30 -21 -51l-512 -512q-22 -22 -52 -22t-51.5 21.5t-21.5 51.5v1024q0 30 21.5 52t51.5 22t52 -22l512 -512q21 -21 21 -52z" />
<glyph unicode="&#xf0fe;" d="M1463 658v147q0 30 -21.5 51.5t-51.5 21.5h-366v365q0 30 -21.5 52t-51.5 22h-146q-30 0 -52 -22t-22 -52v-365h-365q-30 0 -51.5 -21.5t-21.5 -51.5v-147q0 -30 21.5 -51.5t51.5 -21.5h365v-366q0 -30 22 -51.5t52 -21.5h146q30 0 51.5 21.5t21.5 51.5v366h366 q30 0 51.5 21.5t21.5 51.5zM1755 1280v-1097q0 -137 -96.5 -233t-232.5 -96h-1097q-137 0 -233 96t-96 233v1097q0 136 96 232.5t233 96.5h1097q136 0 232.5 -96.5t96.5 -232.5z" />
<glyph unicode="&#xf100;" horiz-adv-x="1170" d="M717 183q0 -14 -12 -26l-57 -58q-11 -11 -26 -11q-16 0 -27 11l-532 533q-12 12 -12 26q0 15 12 27l532 532q12 12 27 12q14 0 26 -12l57 -57q12 -12 12 -26q0 -15 -12 -27l-449 -449l449 -449q12 -12 12 -26zM1155 183q0 -15 -11 -26l-57 -58q-11 -11 -26 -11 q-16 0 -27 11l-532 533q-12 12 -12 26q0 15 12 27l532 532q12 12 27 12q14 0 26 -12l57 -57q11 -11 11 -26q0 -16 -11 -27l-449 -449l449 -449q11 -11 11 -26z" />
<glyph unicode="&#xf101;" horiz-adv-x="1170" d="M680 658q0 -15 -11 -26l-533 -533q-11 -11 -26 -11q-16 0 -27 11l-57 58q-11 11 -11 26t11 26l449 449l-449 449q-11 11 -11 27q0 15 11 26l57 57q12 12 27 12q14 0 26 -12l533 -532q11 -11 11 -27zM1119 658q0 -14 -12 -26l-532 -533q-11 -11 -26 -11q-16 0 -27 11 l-57 58q-11 11 -11 26t11 26l449 449l-449 449q-11 11 -11 27q0 15 11 26l57 57q12 12 27 12q14 0 26 -12l532 -532q12 -12 12 -27z" />
<glyph unicode="&#xf104;" horiz-adv-x="731" d="M717 1134q0 -15 -12 -27l-449 -449l449 -449q12 -12 12 -26t-12 -26l-57 -58q-11 -11 -26 -11q-16 0 -27 11l-532 533q-12 12 -12 26q0 15 12 27l532 532q12 12 27 12q14 0 26 -12l57 -57q12 -12 12 -26z" />
<glyph unicode="&#xf105;" horiz-adv-x="731" d="M680 658q0 -15 -11 -26l-533 -533q-11 -11 -26 -11q-16 0 -27 11l-57 58q-11 11 -11 26t11 26l449 449l-449 449q-11 11 -11 27q0 15 11 26l57 57q12 12 27 12q14 0 26 -12l533 -532q11 -11 11 -27z" />
<glyph unicode="&#xf106;" horiz-adv-x="1316" d="M1229 402q0 -14 -12 -26l-57 -57q-12 -12 -26 -12q-15 0 -27 12l-449 449l-449 -449q-12 -12 -26 -12t-26 12l-58 57q-11 11 -11 26q0 16 11 27l533 532q12 12 26 12q15 0 27 -12l532 -532q12 -12 12 -27z" />
<glyph unicode="&#xf107;" horiz-adv-x="1316" d="M1229 914q0 -14 -12 -26l-532 -533q-11 -11 -27 -11q-15 0 -26 11l-533 533q-11 11 -11 26q0 16 11 27l58 57q11 11 26 11t26 -11l449 -449l449 449q11 11 27 11q15 0 26 -11l57 -57q12 -12 12 -27z" />
<glyph unicode="&#xf146;" d="M1463 658v147q0 30 -21.5 51.5t-51.5 21.5h-1024q-30 0 -51.5 -21.5t-21.5 -51.5v-147q0 -30 21.5 -51.5t51.5 -21.5h1024q30 0 51.5 21.5t21.5 51.5zM1755 1280v-1097q0 -137 -96.5 -233t-232.5 -96h-1097q-137 0 -233 96t-96 233v1097q0 136 96 232.5t233 96.5h1097 q136 0 232.5 -96.5t96.5 -232.5z" />
<glyph unicode="&#xf14a;" d="M783 271l702 702q22 22 22 51t-22 51l-117 117q-22 22 -51.5 22t-51.5 -22l-534 -534l-241 241q-22 22 -51.5 22t-51.5 -22l-116 -116q-22 -22 -22 -51.5t22 -51.5l409 -409q22 -22 51.5 -22t51.5 22zM1755 1280v-1097q0 -137 -96.5 -233t-232.5 -96h-1097 q-137 0 -233 96t-96 233v1097q0 136 96 232.5t233 96.5h1097q136 0 232.5 -96.5t96.5 -232.5z" />
</font>
</defs>
</svg>
