<?xml version="1.0" standalone="no"?>
<!DOCTYPE svg PUBLIC "-//W3C//DTD SVG 1.1//EN" "http://www.w3.org/Graphics/SVG/1.1/DTD/svg11.dtd" >
<svg xmlns="http://www.w3.org/2000/svg" xmlns:xlink="http://www.w3.org/1999/xlink" version="1.1">
<metadata>
Created by FontForge 20150824 at Sat Feb 27 03:54:26 2016
 By Everything Fonts
Copyright (c) 1987, 1991, 1993 Adobe Systems Incorporated.  All Rights Reserved.Futura is a registered trademark of Fundicion Tipografica Neufville S. A.
</metadata>
<defs>
<font id="FuturaBold" horiz-adv-x="686" >
  <font-face 
    font-family="FuturaBold"
    font-weight="700"
    font-stretch="normal"
    units-per-em="1000"
    panose-1="2 11 8 0 0 0 0 0 0 0"
    ascent="800"
    descent="-200"
    x-height="513"
    cap-height="754"
    bbox="-76 -264 1441 1040"
    underline-thickness="50"
    underline-position="-150"
    unicode-range="U+0020-2122"
  />
<missing-glyph horiz-adv-x="502" 
d="M-1 0h500v500h-500v-500zM9 10v480h480v-480h-480z" />
    <glyph glyph-name=".notdef" horiz-adv-x="502" 
d="M-1 0h500v500h-500v-500zM9 10v480h480v-480h-480z" />
    <glyph glyph-name=".null" horiz-adv-x="0" 
 />
    <glyph glyph-name="nonmarkingreturn" horiz-adv-x="333" 
 />
    <glyph glyph-name="space" unicode=" " horiz-adv-x="343" 
 />
    <glyph glyph-name="exclam" unicode="!" horiz-adv-x="384" 
d="M192 214q-49 0 -83 -34t-34 -83q0 -48 34 -82.5t83 -34.5t83 34.5t34 82.5q0 49 -34 83t-83 34zM98 256h189v498h-189v-498z" />
    <glyph glyph-name="quotedbl" unicode="&#x22;" horiz-adv-x="500" 
d="M47 754l27 -331h116l27 331h-170zM283 754l27 -331h116l27 331h-170z" />
    <glyph glyph-name="numbersign" unicode="#" 
d="M265 726l-39 -203h-117v-113h96l-24 -124h-113v-113h91l-33 -173h106l33 173h101l-33 -173h106l33 173h118v113h-94l24 124h98v113h-80l39 203h-105l-39 -203h-101l39 203h-106zM311 410h104l-26 -124h-102z" />
    <glyph glyph-name="dollar" unicode="$" 
d="M68 87q23 -21 51.5 -36.5t66.5 -29.5q66 -25 129 -25v-119h93v125q102 25 156 84t54 160q0 50 -17 86t-46.5 59.5t-65 40t-88.5 33.5q-2 1 -3 1q-42 14 -68.5 31t-26.5 46q0 28 24.5 42t60.5 14q34 0 67 -13t61 -36l74 145q-38 25 -84.5 39t-97.5 19v121h-93v-121
q-45 -3 -82.5 -23t-65 -52.5t-42 -74t-14.5 -85.5t13 -76.5t35 -55t48.5 -37t60.5 -27.5q15 -6 49 -16q57 -18 82.5 -33.5t25.5 -45.5q0 -34 -29 -53.5t-65 -19.5q-45 0 -94 24.5t-87 59.5z" />
    <glyph glyph-name="percent" unicode="%" horiz-adv-x="975" 
d="M225 764q-88 0 -147 -48t-59 -135q0 -88 58 -137t148 -49t148 49t58 137q0 87 -59 135t-147 48zM225 664q35 0 60 -25t25 -60t-25 -59.5t-60 -24.5t-60 24.5t-25 59.5t25 60t60 25zM657 754l-438 -754h98l438 754h-98zM750 359q-88 0 -147 -48t-59 -135q0 -88 58 -137
t148 -49t148 49t58 137q0 87 -59 135t-147 48zM750 259q35 0 60 -25t25 -60t-25 -59.5t-60 -24.5t-60 24.5t-25 59.5t25 60t60 25z" />
    <glyph glyph-name="ampersand" unicode="&#x26;" horiz-adv-x="848" 
d="M431 187q-25 -14 -52 -22.5t-53 -8.5q-33 0 -59 18.5t-26 50.5q0 28 19.5 49t51.5 41zM393 479l-6 6q-25 29 -39 50.5t-14 43.5q0 27 18 44.5t45 17.5q29 0 47.5 -20.5t18.5 -49.5q0 -28 -20 -51.5t-50 -40.5zM603 0h245l-169 178l9 9l95 102l-111 106q-35 -50 -99 -107
l-95 100q67 34 103.5 75t36.5 106q0 47 -19.5 85.5t-53 65t-76 40.5t-87.5 14q-46 0 -88 -14t-75 -41t-52 -66t-19 -86q0 -38 12.5 -65t36.5 -59q2 -2 5 -7l16 -22l-18 -8q-79 -35 -120.5 -83t-41.5 -127q0 -50 19 -90.5t52.5 -68.5t77.5 -42.5t93 -14.5q65 0 131.5 24.5
t126.5 65.5z" />
    <glyph glyph-name="quotesingle" unicode="'" horiz-adv-x="250" 
d="M40 754l27 -331h116l27 331h-170z" />
    <glyph glyph-name="parenleft" unicode="(" horiz-adv-x="352" 
d="M194 790q-36 -49 -63 -110.5t-45.5 -129t-27.5 -135t-9 -129.5q0 -66 8.5 -137t25.5 -141t45 -134.5t66 -113.5l109 62q-29 44 -51 99.5t-36 117t-21 121t-7 114.5q0 123 28 241.5t87 212.5z" />
    <glyph glyph-name="parenright" unicode=")" horiz-adv-x="352" 
d="M49 728q59 -94 87 -212.5t28 -241.5q0 -55 -7 -115t-21 -120.5t-36 -116.5t-51 -100l109 -62q38 50 66 113.5t45.5 134.5t25.5 141.5t8 136.5q0 62 -9 129.5t-27.5 135.5t-45.5 129t-63 110z" />
    <glyph glyph-name="asterisk" unicode="*" horiz-adv-x="483" 
d="M196 754l5 -104l-87 55l-46 -76l93 -51l-90 -50l45 -76l85 54l-6 -100h90l-4 101l88 -57l45 75l-94 52l95 50l-45 76l-89 -56l5 107h-90z" />
    <glyph glyph-name="plus" unicode="+" 
d="M268 332h-181v-150h181v-182h150v182h181v150h-181v181h-150v-181z" />
    <glyph glyph-name="comma" unicode="," horiz-adv-x="343" 
d="M152 191l-130 -332h117l184 332h-171z" />
    <glyph glyph-name="hyphen" unicode="-" horiz-adv-x="392" 
d="M53 396v-150h286v150h-286z" />
    <glyph glyph-name="period" unicode="." horiz-adv-x="343" 
d="M172 214q-49 0 -83 -34t-34 -83q0 -48 34 -82.5t83 -34.5t83 34.5t34 82.5q0 49 -34 83t-83 34z" />
    <glyph glyph-name="slash" unicode="/" horiz-adv-x="579" 
d="M409 830l-382 -923h143l382 923h-143z" />
    <glyph glyph-name="zero" unicode="0" 
d="M343 784q-81 0 -142 -34.5t-100.5 -93t-58.5 -131t-19 -148.5t19 -148.5t58.5 -131t100.5 -93t142 -34.5t142 34.5t100.5 93t58.5 131t19 148.5t-19 148.5t-58.5 131t-100.5 93t-142 34.5zM343 611q36 0 60.5 -24t38.5 -61.5t20 -76.5t6 -71t-6 -71t-20 -77t-38.5 -62.5
t-60.5 -24.5q-35 0 -60 24.5t-39 62.5t-20 77t-6 71t6 71t20 76.5t39 61.5t60 24z" />
    <glyph glyph-name="one" unicode="1" 
d="M269 588v-588h196v754h-304v-166h108z" />
    <glyph glyph-name="two" unicode="2" 
d="M392 166l117 109q63 57 92.5 111t29.5 130q0 60 -22.5 109.5t-63 85.5t-93.5 54.5t-112 18.5q-132 0 -210.5 -79.5t-83.5 -210.5h216q-3 17 -3 32q0 40 22 66t60 26q37 0 61.5 -30t24.5 -68q0 -48 -24.5 -96t-61.5 -89l-308 -335h606v166h-247z" />
    <glyph glyph-name="three" unicode="3" 
d="M255 537q0 38 22 62.5t58 24.5q33 0 55 -21t22 -55q0 -38 -24 -60.5t-62 -22.5h-20v-131q22 6 34 6q42 0 73 -29.5t31 -71.5q0 -45 -29.5 -73t-75.5 -28t-75.5 30.5t-29.5 76.5h-200q0 -49 25 -101t61 -89q44 -45 100.5 -65t124.5 -20q57 0 109.5 16t94 48t65.5 79
t24 107q0 62 -33 118.5t-90 71.5q39 22 59 64.5t20 90.5q0 103 -68 161t-173 58q-119 0 -192 -65q-76 -68 -88 -182h182z" />
    <glyph glyph-name="four" unicode="4" 
d="M564 306v448h-257l-291 -473v-125h366v-156h182v156h91v150h-91zM382 306h-178l176 290h2v-290z" />
    <glyph glyph-name="five" unicode="5" horiz-adv-x="689" 
d="M565 588v166h-392l-66 -409q66 31 144 31q30 0 59.5 -7.5t53.5 -23.5t38 -40.5t14 -57.5q0 -48 -36 -79.5t-84 -31.5q-56 0 -110.5 23t-99.5 64l-29 -185q53 -34 116.5 -51t129.5 -17q63 0 120.5 14.5t99.5 48.5q47 38 72 91.5t25 112.5q0 55 -18 104.5t-51.5 87
t-79 58.5t-98.5 21q-3 0 -10 -1h-10l-62 -5l13 86h261z" />
    <glyph glyph-name="six" unicode="6" 
d="M306 754l-162 -212q-55 -71 -88 -147.5t-33 -152.5q0 -58 27.5 -113.5t73.5 -93.5q41 -33 98.5 -49t116.5 -16q65 0 124 19t104 55.5t70.5 90t25.5 120.5q0 52 -17 99.5t-49 85t-77 59t-99 21.5q-53 0 -105 -23l-2 2l214 255h-222zM338 124q-51 0 -87.5 36.5t-36.5 88.5
q0 51 36.5 87t87.5 36t86 -36t35 -87q0 -52 -35 -88.5t-86 -36.5z" />
    <glyph glyph-name="seven" unicode="7" 
d="M386 588l-344 -588h215l433 754h-619v-166h315z" />
    <glyph glyph-name="eight" unicode="8" 
d="M343 648q35 0 59 -25t24 -60t-24 -60t-59 -25q-34 0 -58.5 25t-24.5 60t24.5 60t58.5 25zM343 317q38 0 64 -27.5t26 -66.5q0 -38 -26 -65t-64 -27q-37 0 -63.5 27t-26.5 65q0 39 26 66.5t64 27.5zM343 784q-49 0 -95 -13.5t-83 -40.5t-58 -68t-21 -93q0 -59 33.5 -106
t85.5 -65v-2q-70 -23 -110 -74.5t-40 -123.5q0 -56 25.5 -99.5t68 -72t93.5 -42.5t101 -14q51 0 102 14t93 42.5t67.5 72t25.5 99.5q0 72 -40 123.5t-110 74.5v2q53 18 86 65t33 106q0 52 -21 92.5t-58 68t-83 41t-95 13.5z" />
    <glyph glyph-name="nine" unicode="9" 
d="M381 0l161 211q55 73 88 148.5t33 151.5q0 59 -27.5 115t-73.5 93q-41 33 -98 49t-117 16q-65 0 -123.5 -18.5t-104 -55.5t-71 -90.5t-25.5 -120.5q0 -52 17 -100t49 -85.5t77 -59t99 -21.5t106 23l2 -2l-215 -254h223zM348 629q52 0 88.5 -36t36.5 -88t-36.5 -88
t-88.5 -36t-86.5 36t-34.5 88t34.5 88t86.5 36z" />
    <glyph glyph-name="colon" unicode=":" horiz-adv-x="343" 
d="M172 214q-49 0 -83 -34t-34 -83q0 -48 34 -82.5t83 -34.5t83 34.5t34 82.5q0 49 -34 83t-83 34zM172 551q-49 0 -83 -34t-34 -83q0 -48 34 -82.5t83 -34.5t83 34.5t34 82.5q0 49 -34 83t-83 34z" />
    <glyph glyph-name="semicolon" unicode=";" horiz-adv-x="343" 
d="M138 191l-130 -332h117l184 332h-171zM218 551q-49 0 -83 -34t-34 -83q0 -48 34 -82.5t83 -34.5t83 34.5t34 82.5q0 49 -34 83t-83 34z" />
    <glyph glyph-name="less" unicode="&#x3c;" 
d="M99 197l489 -182v150l-274 91v2l274 91v150l-489 -182v-120z" />
    <glyph glyph-name="equal" unicode="=" 
d="M87 452v-150h512v150h-512zM87 212v-150h512v150h-512z" />
    <glyph glyph-name="greater" unicode="&#x3e;" 
d="M588 317l-489 182v-150l274 -91v-2l-274 -91v-150l489 182v120z" />
    <glyph glyph-name="question" unicode="?" horiz-adv-x="595" 
d="M186 252h183v71q82 26 131.5 80.5t49.5 135.5q0 48 -23.5 94t-62.5 79q-36 31 -81.5 46.5t-93.5 15.5q-54 0 -103 -15.5t-87.5 -46t-61 -74.5t-22.5 -99h199q0 34 18.5 55t51.5 21q31 0 52 -22t21 -53q0 -46 -40.5 -72.5t-88.5 -26.5q-19 0 -42 5v-194zM281 214
q-49 0 -83 -34t-34 -83q0 -48 34 -82.5t83 -34.5t83 34.5t34 82.5q0 49 -34 83t-83 34z" />
    <glyph glyph-name="at" unicode="@" horiz-adv-x="740" 
d="M280 354q0 43 28.5 79t69.5 36q33 0 53 -22.5t20 -58.5v-8q-1 -4 -1 -8q-5 -45 -28.5 -77.5t-65.5 -32.5q-35 0 -55.5 26.5t-20.5 65.5zM592 570h-95l-10 -53q-43 62 -123 62q-45 0 -83 -20t-65 -54t-41.5 -77.5t-14.5 -89.5q0 -38 13.5 -72t37.5 -59.5t54.5 -40
t62.5 -14.5q42 0 74 16.5t54 41.5q6 -24 23.5 -40.5t38.5 -17.5q41 0 81 22t73 66q30 40 46 95t16 118q0 69 -29.5 128t-82.5 106q-49 44 -108.5 65.5t-126.5 21.5q-79 0 -148.5 -30t-122.5 -84t-82 -126.5t-29 -156.5t30 -157t83.5 -127t124.5 -83.5t150 -29.5q74 0 142 19
t127 49l-82 66q-27 -17 -74 -28.5t-105 -11.5q-64 0 -119 21t-96 61t-64 96.5t-23 124.5q0 65 20.5 120.5t59 96.5t91 63.5t114.5 22.5q56 0 105 -16t85.5 -47.5t57.5 -77.5t21 -104q0 -3 -1 -8v-9q-2 -31 -12 -61.5t-25 -55.5t-31.5 -40t-29.5 -17q-10 0 -14.5 6t-4.5 17
t6 36q0 3 1 7z" />
    <glyph glyph-name="A" unicode="A" horiz-adv-x="781" 
d="M526 131l49 -131h209l-284 754h-214l-290 -754h208l52 131h270zM473 281h-163l81 240h2z" />
    <glyph glyph-name="B" unicode="B" horiz-adv-x="677" 
d="M260 312h20q40 0 68 -2.5t49 -10.5t32.5 -24.5t11.5 -44.5t-13.5 -44.5t-36 -24t-47 -9.5t-59.5 -2h-25v162zM366 0q55 0 103.5 11t86.5 36t60.5 65.5t22.5 97.5q0 82 -38 132t-116 60v2q44 22 63.5 61t19.5 93q0 103 -58.5 149.5t-165.5 46.5h-280v-754h302zM260 604h14
q25 0 43.5 -2t35 -9t26 -22t9.5 -40q0 -23 -8.5 -37.5t-24 -22.5t-33.5 -10.5t-40 -2.5h-22v146z" />
    <glyph glyph-name="C" unicode="C" horiz-adv-x="660" 
d="M603 736q-92 38 -179 38q-79 0 -155 -32.5t-132 -89.5q-54 -55 -82.5 -127t-28.5 -149q0 -86 30 -158t91 -127q59 -53 132 -82t151 -29q40 0 74.5 7.5t93.5 25.5l5 2v235q-31 -37 -76 -58.5t-93 -21.5q-91 0 -147.5 57.5t-56.5 147.5q0 44 14.5 82t41.5 66.5t64 44.5
t81 16q51 0 97 -21.5t75 -61.5v235z" />
    <glyph glyph-name="D" unicode="D" horiz-adv-x="752" 
d="M64 0h278q77 0 147 29t123 80.5t83 120.5t30 147t-29.5 147t-82.5 121t-123 80.5t-148 28.5h-278v-754zM260 588h46q97 0 156 -56t59 -155q0 -53 -17 -93.5t-47 -66.5t-69 -38.5t-84 -12.5h-44v422z" />
    <glyph glyph-name="E" unicode="E" horiz-adv-x="550" 
d="M493 588v166h-429v-754h429v166h-233v130h221v166h-221v126h233z" />
    <glyph glyph-name="F" unicode="F" horiz-adv-x="542" 
d="M497 588v166h-433v-754h196v296h215v166h-215v126h237z" />
    <glyph glyph-name="G" unicode="G" horiz-adv-x="842" 
d="M427 421v-154h160q-6 -63 -49 -97t-109 -34q-47 0 -84.5 19.5t-63 53.5t-38.5 76.5t-13 86.5t13 86.5t38 77t62 54.5t83 20q58 0 100 -32t63 -88l186 78q-48 105 -135 158t-205 53q-90 0 -165.5 -28.5t-130 -82.5t-84 -129t-29.5 -166q0 -88 29 -161.5t83 -126.5
t128 -81.5t162 -28.5q97 0 177 36.5t134 111.5q46 64 60.5 132t16.5 166h-389z" />
    <glyph glyph-name="H" unicode="H" horiz-adv-x="803" 
d="M260 463v291h-196v-754h196v309h283v-309h196v754h-196v-291h-283z" />
    <glyph glyph-name="I" unicode="I" horiz-adv-x="324" 
d="M260 754h-196v-754h196v754z" />
    <glyph glyph-name="J" unicode="J" horiz-adv-x="489" 
d="M233 754v-497q0 -25 -1.5 -42.5t-6.5 -33.5t-17 -25.5t-31 -9.5q-17 0 -38 18.5t-41 45.5l-113 -119q35 -53 84 -82t110 -29q122 0 186 71.5t64 193.5v509h-196z" />
    <glyph glyph-name="K" unicode="K" horiz-adv-x="758" 
d="M262 443h-2v311h-196v-754h196v327h2l253 -327h254l-327 397l300 357h-243z" />
    <glyph glyph-name="L" unicode="L" horiz-adv-x="495" 
d="M260 754h-196v-754h431v166h-235v588z" />
    <glyph glyph-name="M" unicode="M" horiz-adv-x="983" 
d="M19 0h195l63 434h2l173 -434h78l181 434h2l55 -434h196l-114 754h-195l-162 -403l-153 403h-193z" />
    <glyph glyph-name="N" unicode="N" horiz-adv-x="881" 
d="M64 0h196v462h2l359 -462h196v754h-196v-461h-2l-359 461h-196v-754z" />
    <glyph glyph-name="O" unicode="O" horiz-adv-x="887" 
d="M443 779q-81 0 -156.5 -28.5t-134.5 -81t-92.5 -124t-33.5 -154.5q0 -90 31 -166.5t87 -132.5t133 -86.5t166 -30.5t166 30.5t133 86t87 132.5t31 167q0 83 -33.5 154.5t-92.5 124t-134.5 81t-156.5 28.5zM443 589q43 0 82 -16t68.5 -44t46 -64.5t16.5 -74.5
q0 -48 -16.5 -89t-46 -72t-68.5 -47.5t-82 -16.5t-82 16.5t-68.5 47.5t-46 72t-16.5 89q0 38 16.5 74t46.5 64.5t68.5 44.5t81.5 16z" />
    <glyph glyph-name="P" unicode="P" horiz-adv-x="661" 
d="M64 0h196v250h111q131 0 199 62.5t68 193.5q0 125 -73.5 186.5t-200.5 61.5h-300v-754zM260 596h33q36 0 59 -2t41.5 -11t29.5 -29t11 -54q0 -33 -11.5 -52t-31 -27.5t-41 -10.5t-57.5 -2h-33v188z" />
    <glyph glyph-name="Q" unicode="Q" horiz-adv-x="887" 
d="M568 318l-185 -23l121 -120q-29 -10 -60 -10q-43 0 -82 16.5t-69 47.5t-46.5 72t-16.5 89q0 38 17 74.5t46.5 64.5t68.5 44t82 16t82 -17t68 -47.5t45.5 -69.5t16.5 -81q0 -29 -9 -58t-26 -53zM890 -19l-127 129q97 120 97 265q0 90 -31.5 165t-88.5 128.5t-133 82
t-164 28.5q-81 0 -156.5 -28.5t-134.5 -81t-92.5 -124t-33.5 -154.5q0 -90 31 -166.5t87 -132.5t133 -86.5t166 -30.5q126 0 207 49l60 -71z" />
    <glyph glyph-name="R" unicode="R" horiz-adv-x="680" 
d="M454 309q78 14 121.5 73t43.5 140q0 116 -72 174t-190 58h-293v-754h196v290h2l185 -290h244zM260 604h19q27 0 50.5 -3.5t43 -13.5t31 -29t11.5 -48t-11.5 -48t-31 -29t-43 -13.5t-50.5 -3.5h-19v188z" />
    <glyph glyph-name="S" unicode="S" horiz-adv-x="616" 
d="M556 712q-50 28 -114 45t-122 17q-56 0 -104 -18t-83 -51.5t-54 -80t-19 -103.5q0 -53 14 -88.5t40.5 -58t60.5 -36.5t89 -30q2 -1 6 -2q23 -6 40.5 -12t34.5 -16t27.5 -23.5t10.5 -32.5q0 -37 -28 -56.5t-67 -19.5q-47 0 -90 21t-84 57l-84 -158q58 -41 126.5 -63.5
t138.5 -22.5q60 0 116 17.5t98 53.5t60 88.5t18 114.5q0 44 -13.5 78t-39 58t-58.5 41t-75 29l-50 15v0q-39 13 -63 28t-24 44t26.5 46t57.5 17q35 0 68.5 -13.5t61.5 -36.5z" />
    <glyph glyph-name="T" unicode="T" horiz-adv-x="533" 
d="M364 588h162v166h-520v-166h162v-588h196v588z" />
    <glyph glyph-name="U" unicode="U" horiz-adv-x="778" 
d="M522 754v-397q0 -46 -3.5 -79.5t-16.5 -62t-40.5 -46t-72.5 -17.5t-72.5 17.5t-40.5 46.5t-16.5 62t-3.5 79v397h-196v-424q0 -92 14.5 -154.5t64.5 -111.5q44 -44 111 -64t139 -20t139 20t111 64q50 49 64.5 111.5t14.5 154.5v424h-196z" />
    <glyph glyph-name="V" unicode="V" horiz-adv-x="761" 
d="M198 754h-213l317 -754h152l322 754h-213l-183 -458z" />
    <glyph glyph-name="W" unicode="W" horiz-adv-x="1117" 
d="M189 754h-204l225 -754h199l148 437h2l132 -437h200l241 754h-204l-142 -487h-2l-148 487h-156l-158 -487h-2z" />
    <glyph glyph-name="X" unicode="X" horiz-adv-x="789" 
d="M287 403l-295 -403h237l173 246l158 -246h236l-279 403l241 351h-241l-115 -195l-115 195h-241z" />
    <glyph glyph-name="Y" unicode="Y" horiz-adv-x="714" 
d="M259 362v-362h196v362l278 392h-235l-141 -205l-141 205h-235z" />
    <glyph glyph-name="Z" unicode="Z" horiz-adv-x="707" 
d="M341 166l355 588h-624v-166h296l-357 -588h646v166h-316z" />
    <glyph glyph-name="bracketleft" unicode="[" horiz-adv-x="350" 
d="M191 684h107v106h-246v-1030h246v106h-107v818z" />
    <glyph glyph-name="backslash" unicode="\" horiz-adv-x="579" 
d="M27 830l383 -830h142l-381 830h-144z" />
    <glyph glyph-name="bracketright" unicode="]" horiz-adv-x="350" 
d="M159 -134h-107v-106h246v1030h-246v-106h107v-818z" />
    <glyph glyph-name="asciicircum" unicode="^" 
d="M217 340l126 269l126 -269l114 67l-180 377h-120l-180 -377z" />
    <glyph glyph-name="underscore" unicode="_" horiz-adv-x="500" 
d="M500 -125v50h-500v-50h500z" />
    <glyph glyph-name="grave" unicode="`" horiz-adv-x="402" 
d="M75 740l171 -151l81 59l-141 172z" />
    <glyph glyph-name="a" unicode="a" horiz-adv-x="682" 
d="M328 372q54 0 85.5 -33.5t31.5 -82.5q0 -50 -31.5 -82.5t-85.5 -32.5t-85.5 32.5t-31.5 82.5q0 49 31.5 82.5t85.5 33.5zM621 513h-182v-50q-28 33 -70.5 50t-88.5 17q-56 0 -103 -21.5t-82 -59.5t-53.5 -87.5t-18.5 -104.5t19 -104.5t54 -88t83 -60t103 -21.5
q48 0 90 19t65 55h2v-57h182v513z" />
    <glyph glyph-name="b" unicode="b" horiz-adv-x="682" 
d="M54 0h182v57h2q24 -37 66 -55.5t89 -18.5q56 0 104 21.5t82.5 59.5t53.5 88t19 105t-18.5 104.5t-53 87.5t-82 59.5t-103.5 21.5q-46 0 -88.5 -17t-70.5 -50v367h-182v-830zM347 372q54 0 85.5 -33.5t31.5 -82.5q0 -50 -31.5 -82.5t-85.5 -32.5t-85.5 32.5t-31.5 82.5
q0 49 31.5 82.5t85.5 33.5z" />
    <glyph glyph-name="c" unicode="c" horiz-adv-x="483" 
d="M430 500q-54 30 -120 30q-60 0 -112.5 -20t-91.5 -57.5t-61 -89t-22 -112.5q0 -57 22 -106.5t60.5 -85.5t89.5 -56t107 -20q70 0 128 29v154q-18 -16 -42.5 -25.5t-48.5 -9.5q-56 0 -92 35.5t-36 90.5q0 53 36 89t89 36q25 0 48.5 -9.5t45.5 -26.5v154z" />
    <glyph glyph-name="d" unicode="d" horiz-adv-x="682" 
d="M446 0h182v830h-182v-367q-28 33 -70.5 50t-88.5 17q-56 0 -103 -21.5t-82 -59.5t-53.5 -87.5t-18.5 -104.5t19 -104.5t54 -88t83 -60t103 -21.5q48 0 90 19t65 55h2v-57zM335 372q54 0 85.5 -33.5t31.5 -82.5q0 -50 -31.5 -82.5t-85.5 -32.5t-85.5 32.5t-31.5 82.5
q0 49 31.5 82.5t85.5 33.5z" />
    <glyph glyph-name="e" unicode="e" horiz-adv-x="610" 
d="M207 331q8 39 37.5 60t70.5 21q38 0 67 -22.5t36 -58.5h-211zM587 245q0 132 -74 208.5t-207 76.5q-62 0 -114.5 -18.5t-90.5 -54.5t-58.5 -87t-20.5 -114q0 -129 82.5 -201t214.5 -72q94 0 167 45t94 131h-175q-28 -47 -87 -47q-114 0 -114 114h383v19z" />
    <glyph glyph-name="f" unicode="f" horiz-adv-x="388" 
d="M260 363h127v150h-127v83q0 45 14.5 65.5t48.5 20.5q16 0 29.5 -4t34.5 -13v157q-35 18 -78 18q-52 0 -98.5 -21t-80.5 -61q-34 -39 -43 -77t-9 -103v-65h-64v-150h64v-363h182v363z" />
    <glyph glyph-name="g" unicode="g" horiz-adv-x="677" 
d="M623 513h-182v-54h-2q-26 37 -64.5 54t-86.5 17q-58 0 -106.5 -22t-83.5 -60.5t-54 -89t-19 -106.5q0 -55 18.5 -103t52 -83.5t80.5 -55.5t102 -20q50 0 88.5 17t74.5 53v-24q0 -34 -5 -60t-17.5 -45.5t-35.5 -30.5t-59 -11q-28 0 -52 12q-27 13 -34 39h-204
q6 -48 34.5 -85.5t71.5 -62t91.5 -36.5t94.5 -12q146 0 221.5 73.5t75.5 232.5v463zM330 376q54 0 85.5 -33.5t31.5 -82.5q0 -50 -31.5 -82.5t-85.5 -32.5t-85.5 32.5t-31.5 82.5q0 49 31.5 82.5t85.5 33.5z" />
    <glyph glyph-name="h" unicode="h" horiz-adv-x="661" 
d="M60 830v-830h182v263q0 51 22.5 86.5t72.5 35.5q26 0 42.5 -10t25 -27t11.5 -37.5t3 -47.5v-263h182v314q0 100 -49 158t-144 58q-53 0 -92.5 -20t-71.5 -62h-2v382h-182z" />
    <glyph glyph-name="i" unicode="i" horiz-adv-x="302" 
d="M242 513h-182v-513h182v513zM151 812q-42 0 -72 -30t-30 -72t30 -72t72 -30t72 30t30 72t-30 72t-72 30z" />
    <glyph glyph-name="j" unicode="j" horiz-adv-x="302" 
d="M242 513h-182v-769h182v769zM151 812q-42 0 -72 -30t-30 -72t30 -72t72 -30t72 30t30 72t-30 72t-72 30z" />
    <glyph glyph-name="k" unicode="k" horiz-adv-x="688" 
d="M242 830h-182v-830h182v209l199 -209h255l-273 276l257 237h-249l-189 -185v502z" />
    <glyph glyph-name="l" unicode="l" horiz-adv-x="302" 
d="M242 830h-182v-830h182v830z" />
    <glyph glyph-name="m" unicode="m" horiz-adv-x="989" 
d="M242 513h-182v-513h182v245q0 30 2 52.5t9 43.5t24.5 34.5t45.5 13.5t45.5 -13.5t25 -34.5t9 -43.5t1.5 -52.5v-245h182v245q0 30 2.5 52.5t10.5 42.5t26 32.5t48 12.5q26 0 41.5 -12.5t22.5 -32.5t9 -42t2 -53v-245h182v327q0 95 -41 149t-134 54q-54 0 -101 -25.5
t-73 -72.5q-27 50 -72 74t-103 24q-101 0 -162 -81h-2v64z" />
    <glyph glyph-name="n" unicode="n" horiz-adv-x="661" 
d="M242 513h-182v-513h182v266q0 54 22 86.5t73 32.5q28 0 44.5 -10.5t24.5 -28.5t10.5 -41t2.5 -55v-250h182v317q0 100 -47 156.5t-146 56.5q-55 0 -94 -19t-70 -64h-2v66z" />
    <glyph glyph-name="o" unicode="o" horiz-adv-x="662" 
d="M331 530q-62 0 -118 -18.5t-99 -53.5t-67.5 -86.5t-24.5 -115.5t24.5 -115t67.5 -86.5t99 -53.5t118 -18t118.5 18.5t99 53.5t67 86.5t24.5 114.5q0 64 -24.5 115.5t-67.5 86.5t-99 53.5t-118 18.5zM331 372q54 0 85.5 -33.5t31.5 -82.5q0 -50 -31.5 -82.5t-85.5 -32.5
t-85.5 32.5t-31.5 82.5q0 49 31.5 82.5t85.5 33.5z" />
    <glyph glyph-name="p" unicode="p" horiz-adv-x="682" 
d="M236 513h-182v-769h182v305q28 -32 70.5 -49t88.5 -17q56 0 103.5 21t82 59t53 87.5t18.5 104.5t-19 105t-53.5 88.5t-82.5 60t-104 21.5q-47 0 -89 -19t-66 -56h-2v58zM347 372q54 0 85.5 -33.5t31.5 -82.5q0 -50 -31.5 -82.5t-85.5 -32.5t-85.5 32.5t-31.5 82.5
q0 49 31.5 82.5t85.5 33.5z" />
    <glyph glyph-name="q" unicode="q" horiz-adv-x="682" 
d="M628 513h-182v-58h-2q-23 37 -65 56t-90 19q-55 0 -103 -22t-83 -60.5t-54 -88.5t-19 -104q0 -55 18.5 -104.5t53 -87.5t82 -59t103.5 -21q47 0 89.5 17t69.5 49v-305h182v769zM335 372q54 0 85.5 -33.5t31.5 -82.5q0 -50 -31.5 -82.5t-85.5 -32.5t-85.5 32.5t-31.5 82.5
q0 49 31.5 82.5t85.5 33.5z" />
    <glyph glyph-name="r" unicode="r" horiz-adv-x="453" 
d="M242 513h-182v-513h182v207q0 74 28 114.5t98 40.5q24 0 41.5 -3.5t35.5 -13.5v175h-35q-55 0 -97.5 -22.5t-68.5 -68.5h-2v84z" />
    <glyph glyph-name="s" unicode="s" horiz-adv-x="513" 
d="M460 497q-73 33 -169 33q-43 0 -83.5 -11t-73 -33.5t-51 -57.5t-18.5 -80q0 -33 9.5 -56.5t25 -38.5t35 -24t44.5 -16q12 -3 35 -8q41 -9 60 -18.5t19 -30.5q0 -19 -18 -29t-39 -10q-32 0 -73 15.5t-71 36.5l-66 -127q47 -29 99.5 -44t107.5 -15q46 0 89.5 11.5t78 34.5
t54.5 59.5t20 85.5q0 67 -39.5 102.5t-109.5 49.5l-10 2q-32 6 -52 14.5t-20 28.5q0 17 18.5 26t38.5 9q23 0 50 -7t48 -18z" />
    <glyph glyph-name="t" unicode="t" horiz-adv-x="360" 
d="M259 363h103v150h-103v154h-182v-154h-59v-150h59v-363h182v363z" />
    <glyph glyph-name="u" unicode="u" horiz-adv-x="659" 
d="M57 513v-309q0 -62 20.5 -104.5t57 -68t86 -37t109.5 -11.5t109.5 11.5t86 36.5t57 68t20.5 105v309h-182v-274q0 -54 -19.5 -82.5t-71.5 -28.5t-71.5 28.5t-19.5 82.5v274h-182z" />
    <glyph glyph-name="v" unicode="v" horiz-adv-x="623" 
d="M189 513h-204l269 -513h116l268 513h-204l-122 -263z" />
    <glyph glyph-name="w" unicode="w" horiz-adv-x="996" 
d="M187 513h-202l268 -513h118l127 281l127 -281h118l268 513h-201l-129 -278l-129 278h-108l-129 -278z" />
    <glyph glyph-name="x" unicode="x" horiz-adv-x="712" 
d="M241 278l-256 -278h239l132 152l132 -152h239l-256 278l212 235h-235l-92 -106l-92 106h-231z" />
    <glyph glyph-name="y" unicode="y" horiz-adv-x="654" 
d="M233 70l-175 -326h204l411 769h-207l-134 -263l-137 263h-210z" />
    <glyph glyph-name="z" unicode="z" horiz-adv-x="559" 
d="M312 151l240 362h-512v-151h209l-241 -362h520v151h-216z" />
    <glyph glyph-name="braceleft" unicode="{" horiz-adv-x="352" 
d="M36 227q33 0 51.5 -12t18.5 -51v-253q0 -37 12 -66t30 -47.5t37 -28t34 -9.5h97v120h-25q-30 0 -38 15t-8 44v222q0 37 -9.5 60t-24 34.5t-29 16t-32.5 6.5h-1v2q15 2 30.5 7.5t30.5 17t25 31.5t10 50v225q0 29 8 44t38 15h25v120h-97q-15 0 -34 -9.5t-37 -28.5t-30 -48
t-12 -67v-253q0 -33 -19 -43t-51 -10v-104z" />
    <glyph glyph-name="bar" unicode="|" horiz-adv-x="579" 
d="M365 786h-150v-1000h150v1000z" />
    <glyph glyph-name="braceright" unicode="}" horiz-adv-x="352" 
d="M316 331q-32 0 -51 10t-19 43v253q0 38 -11.5 67t-30 48t-37.5 28.5t-34 9.5h-97v-120h25q30 0 38 -15t8 -44v-225q0 -30 10 -50.5t25 -31.5t30 -16t31 -8v-2h-1q-18 -2 -32 -6.5t-29 -16t-24.5 -34.5t-9.5 -60v-222q0 -29 -7.5 -44t-38.5 -15h-25v-120h97q15 0 34 9.5
t37 28t30 47.5t12 66v253q0 39 18.5 51t51.5 12v104z" />
    <glyph glyph-name="asciitilde" unicode="~" 
d="M523 373q-11 -31 -27.5 -57.5t-34.5 -26.5q-21 0 -51.5 15t-56.5 35q-32 24 -65.5 40t-62.5 16q-43 0 -76 -31t-72 -88q-20 -29 -28 -38l113 -96q15 34 31.5 59t33.5 25q14 0 31 -8.5t44 -26.5q25 -16 37 -23q5 -2 15 -9q32 -19 56 -29t52 -10q29 0 55 14.5t47.5 38
t37.5 47.5t34 55l1 1z" />
    <glyph glyph-name="exclamdown" unicode="&#xa1;" horiz-adv-x="384" 
d="M192 532q-49 0 -83 -34t-34 -83q0 -48 34 -82.5t83 -34.5t83 34.5t34 82.5q0 49 -34 83t-83 34zM98 255v-498h189v498h-189z" />
    <glyph glyph-name="cent" unicode="&#xa2;" 
d="M394 10h93v106q20 2 58 16v163q-16 -19 -41 -28.5t-53 -9.5q-51 0 -85.5 35.5t-34.5 87.5q0 53 36 87.5t90 34.5q48 0 88 -38v163l-58 17v99h-93v-93q-55 -5 -101.5 -27t-80.5 -58.5t-52.5 -84.5t-18.5 -103q0 -52 19.5 -99.5t54.5 -85t81 -59.5t98 -24v-99z" />
    <glyph glyph-name="sterling" unicode="&#xa3;" 
d="M478 300v76h-156q-41 60 -41 132q0 45 25.5 75.5t69.5 30.5q38 0 64.5 -28.5t26.5 -66.5v-35h194q-1 149 -66 216.5t-212 67.5q-64 0 -117 -16.5t-94 -56.5q-39 -37 -60 -87t-21 -104q0 -70 36 -128h-108v-76h161q28 -43 28 -80q0 -22 -10 -43q-34 0 -63 -15.5t-51 -40.5
t-37 -56.5t-21 -64.5h130q5 19 23.5 28t39.5 9q24 0 57.5 -7.5t69.5 -17.5l23 -7q39 -11 63.5 -16t51.5 -5q85 0 131.5 53t52.5 140h-122q0 -23 -14 -36t-37 -13q-28 0 -70.5 10.5t-77.5 23.5l-11 4q9 25 9 66q0 42 -9 68h142z" />
    <glyph glyph-name="currency" unicode="&#xa4;" 
d="M49 152l62 -63l66 66q32 -27 76 -41t93 -14q47 0 90.5 14.5t73.5 39.5l67 -66l60 65l-66 66q26 29 41 72t15 89t-14.5 90.5t-39.5 77.5l62 63l-62 62l-67 -67q-28 24 -71 38t-89 14t-91 -14t-77 -38l-67 67l-62 -63l66 -67q-24 -29 -37 -73t-13 -92q0 -46 13 -87.5
t37 -72.5zM346 508q56 0 93.5 -38.5t37.5 -94.5t-37 -90.5t-94 -34.5q-56 0 -93.5 34.5t-37.5 90.5t37.5 94.5t93.5 38.5z" />
    <glyph glyph-name="yen" unicode="&#xa5;" 
d="M633 446v76h-91l155 232h-222l-132 -205l-132 205h-222l154 -232h-92v-76h142l57 -84h-199v-76h200v-286h184v286h198v76h-198l56 84h142z" />
    <glyph glyph-name="brokenbar" unicode="&#xa6;" horiz-adv-x="579" 
d="M365 161h-150v-250h150v250zM365 661h-150v-250h150v250z" />
    <glyph glyph-name="section" unicode="&#xa7;" 
d="M285 270l-8 4q-32 15 -49.5 30.5t-17.5 40.5q0 17 8.5 31.5t22.5 22.5l164 -83h1q34 -17 53 -33t19 -42q0 -14 -7.5 -29.5t-18.5 -24.5zM563 589q-2 48 -22 83.5t-53 58t-74 33t-88 10.5q-44 0 -85 -12t-73 -36.5t-51 -60.5t-19 -82q0 -31 12 -64t33 -53
q-39 -32 -62.5 -74.5t-23.5 -88.5q0 -57 30.5 -97t86.5 -68l158 -77l11 -5q35 -17 54 -33t19 -44q0 -31 -22 -49t-54 -18q-38 0 -68 26t-30 65h-183q0 -58 23.5 -102.5t63 -73.5t88.5 -43t102 -14q50 0 97 13.5t84 40.5t58.5 68t21.5 93q0 37 -13 72.5t-38 57.5
q39 31 61.5 71t22.5 86q0 38 -11 65.5t-30 47.5t-43.5 35t-62.5 34l-111 56q-5 2 -15 7q-37 18 -57.5 35t-20.5 46q0 23 16.5 37t39.5 14q27 0 46 -16.5t25 -43.5h157z" />
    <glyph glyph-name="dieresis" unicode="&#xa8;" horiz-adv-x="604" 
d="M174 800q-41 0 -70 -28.5t-29 -69.5t29 -69.5t70 -28.5t69.5 28.5t28.5 69.5q0 40 -29 69t-69 29zM430 800q-41 0 -70 -28.5t-29 -69.5t29 -69.5t70 -28.5t69.5 28.5t28.5 69.5q0 40 -29 69t-69 29z" />
    <glyph glyph-name="copyright" unicode="&#xa9;" horiz-adv-x="800" 
d="M400 -20q81 0 153.5 30.5t127 85.5t85 127t30.5 153t-30.5 154t-85 128t-127 85.5t-153.5 30.5t-153.5 -30.5t-127 -85.5t-85 -128t-30.5 -154t30.5 -153t85 -127t127 -85.5t153.5 -30.5zM400 74q-64 0 -119.5 22t-96.5 63t-63.5 96.5t-22.5 120.5q0 66 22.5 122t63.5 97
t96.5 63t119.5 22q63 0 118.5 -22t96.5 -63t64 -97.5t23 -121.5q0 -64 -23 -120t-64 -97t-96.5 -63t-118.5 -22zM602 459q-12 69 -63.5 109.5t-123.5 40.5q-100 0 -159 -64t-59 -165q0 -47 15.5 -88.5t45 -73t70 -49t89.5 -17.5q71 0 124 42t61 112h-90q-2 -35 -30 -56
t-65 -21q-28 0 -51.5 13t-40.5 35q-34 45 -34 105q0 63 33 106.5t90 43.5q38 0 65 -18.5t33 -54.5h90z" />
    <glyph glyph-name="ordfeminine" unicode="&#xaa;" horiz-adv-x="409" 
d="M209 540q-31 0 -53.5 20.5t-22.5 49.5t22.5 49.5t53.5 20.5q32 0 54 -20.5t22 -49.5t-22 -49.5t-54 -20.5zM281 456h118v308h-118v-30q-18 20 -45.5 30t-57.5 10q-73 0 -120 -48t-47 -116q0 -33 12.5 -62.5t35 -52.5t53.5 -36t67 -13q31 0 58.5 11.5t41.5 32.5h2v-34z
" />
    <glyph glyph-name="guillemotleft" unicode="&#xab;" horiz-adv-x="603" 
d="M421 320l126 177l-100 69l-172 -246l172 -246l103 72zM172 320l126 177l-100 69l-172 -246l172 -246l103 72z" />
    <glyph glyph-name="logicalnot" unicode="&#xac;" 
d="M449 141h150v311h-512v-150h362v-161z" />
    <glyph glyph-name="minus" unicode="&#xad;" 
d="M87 332v-150h512v150h-512z" />
    <glyph glyph-name="minus" unicode="&#x2212;" 
d="M87 332v-150h512v150h-512z" />
    <glyph glyph-name="registered" unicode="&#xae;" horiz-adv-x="800" 
d="M400 -20q81 0 153.5 30.5t127 85.5t85 127t30.5 153t-30.5 154t-85 128t-127 85.5t-153.5 30.5t-153.5 -30.5t-127 -85.5t-85 -128t-30.5 -154t30.5 -153t85 -127t127 -85.5t153.5 -30.5zM400 74q-64 0 -119.5 22t-96.5 63t-63.5 96.5t-22.5 120.5q0 66 22.5 122t63.5 97
t96.5 63t119.5 22q63 0 118.5 -22t96.5 -63t64 -97.5t23 -121.5q0 -64 -23 -120t-64 -97t-96.5 -63t-118.5 -22zM490 349q56 4 84 30.5t28 81.5q0 40 -11.5 65t-32 38.5t-48.5 18t-68 4.5h-200v-412h92v174h64l92 -174h100zM334 411v104h89q21 0 35 -1t27.5 -4.5t22 -12.5
t8.5 -24q0 -37 -17 -49.5t-55 -12.5h-110z" />
    <glyph glyph-name="macron" unicode="&#xaf;" horiz-adv-x="603" 
d="M75 752v-107h452v107h-452z" />
    <glyph glyph-name="degree" unicode="&#xb0;" horiz-adv-x="400" 
d="M350 623q0 31 -12 58.5t-33 48.5t-48.5 32.5t-57.5 11.5q-62 0 -105.5 -43.5t-43.5 -107.5q0 -62 43.5 -105.5t105.5 -43.5q30 0 57.5 11.5t48.5 32.5t33 48t12 57zM265 624q0 -27 -19 -46t-46 -19t-46 19t-19 46t19 46t45 19q28 0 47 -19t19 -46z" />
    <glyph glyph-name="plusminus" unicode="&#xb1;" 
d="M268 512h-181v-150h181v-142h150v142h181v150h-181v142h-150v-142zM87 150v-150h512v150h-512z" />
    <glyph glyph-name="twosuperior" unicode="&#xb2;" horiz-adv-x="412" 
d="M313 479q41 34 60 66t19 78q0 72 -54.5 116.5t-134.5 44.5q-86 0 -137 -47.5t-54 -126.5h140v3q-2 10 -2 16q0 24 14.5 39.5t39.5 15.5q24 0 40 -18t16 -40q0 -29 -16 -58t-40 -53l-201 -201h394v99h-160z" />
    <glyph glyph-name="threesuperior" unicode="&#xb3;" horiz-adv-x="412" 
d="M4 461q0 -30 16.5 -61t39.5 -52q28 -27 65 -39t81 -12q78 0 134 39.5t56 109.5q0 38 -21.5 72t-58.5 42q26 14 39 39t13 54q0 61 -44.5 96t-112.5 35q-76 0 -125.5 -39t-56.5 -109h118q0 22 14.5 37t37.5 15q22 0 36 -12.5t14 -32.5q0 -23 -15.5 -36.5t-40.5 -13.5h-13
v-78q5 1 8 1q9 2 15 2q27 0 47 -17.5t20 -42.5q0 -27 -19 -43.5t-49 -16.5t-49 18t-19 45h-130z" />
    <glyph glyph-name="acute" unicode="&#xb4;" horiz-adv-x="402" 
d="M327 740l-111 80l-141 -172l81 -59z" />
    <glyph glyph-name="mu" unicode="&#xb5;" horiz-adv-x="659" 
d="M57 513v-769h182v288q21 -20 54 -34.5t77 -14.5q39 0 79 11t75 36t57 68.5t22 105.5v309h-182v-274q0 -54 -19.5 -82.5t-71.5 -28.5t-71.5 28.5t-19.5 82.5v274h-182z" />
    <glyph glyph-name="paragraph" unicode="&#xb6;" 
d="M263 754q-41 0 -80 -19t-70 -52.5t-48.5 -74.5t-17.5 -83q0 -2 1 -10v-10q6 -56 26 -96t51 -64.5t69 -37t85 -17.5v-460h101v832h93v-832h101v833h66v91h-377z" />
    <glyph glyph-name="periodcentered" unicode="&#xb7;" horiz-adv-x="343" 
d="M172 373q-49 0 -83 -34t-34 -83q0 -48 34 -82.5t83 -34.5t83 34.5t34 82.5q0 49 -34 83t-83 34z" />
    <glyph glyph-name="periodcentered" unicode="&#x2219;" horiz-adv-x="343" 
d="M172 373q-49 0 -83 -34t-34 -83q0 -48 34 -82.5t83 -34.5t83 34.5t34 82.5q0 49 -34 83t-83 34z" />
    <glyph glyph-name="cedilla" unicode="&#xb8;" horiz-adv-x="380" 
d="M304 -94l-99 64l-130 -158l78 -49z" />
    <glyph glyph-name="onesuperior" unicode="&#xb9;" horiz-adv-x="412" 
d="M163 667v-353h127v452h-197v-99h70z" />
    <glyph glyph-name="ordmasculine" unicode="&#xba;" horiz-adv-x="410" 
d="M205 774q-84 0 -142 -44t-58 -120t58 -120t142 -44t142.5 44t58.5 120t-58.5 120t-142.5 44zM205 679q32 0 54 -20t22 -49t-22 -49t-54 -20q-31 0 -53 20t-22 49t22 49t53 20z" />
    <glyph glyph-name="guillemotright" unicode="&#xbb;" horiz-adv-x="603" 
d="M53 146l103 -72l172 246l-172 246l-100 -69l126 -177zM302 146l103 -72l172 246l-172 246l-100 -69l126 -177z" />
    <glyph glyph-name="onequarter" unicode="&#xbc;" horiz-adv-x="1029" 
d="M170 655v-353h127v452h-197v-99h70zM870 184v268h-167l-189 -283v-75h238v-94h118v94h59v90h-59zM752 183h-116l114 174h2v-174zM645 754l-438 -754h98l438 754h-98z" />
    <glyph glyph-name="onehalf" unicode="&#xbd;" horiz-adv-x="1029" 
d="M170 655v-353h127v452h-197v-99h70zM845 165q41 34 60 66t19 78q0 72 -54.5 116.5t-134.5 44.5q-86 0 -137 -47.5t-54 -126.5h140v3q-2 10 -2 16q0 24 14.5 39.5t39.5 15.5q24 0 40 -18t16 -40q0 -29 -16 -58t-40 -53l-201 -201h394v99h-160zM617 754l-438 -754h98
l438 754h-98z" />
    <glyph glyph-name="threequarters" unicode="&#xbe;" horiz-adv-x="1029" 
d="M920 184v268h-167l-189 -283v-75h238v-94h118v94h59v90h-59zM802 183h-116l114 174h2v-174zM731 754l-438 -754h98l438 754h-98zM226 563v-78q5 1 8 1q9 2 15 2q27 0 47 -17.5t20 -42.5q0 -27 -19 -43.5t-49 -16.5q-29 0 -49 18q-19 17 -19 45h-130q0 -30 16.5 -61
t39.5 -52q28 -27 65 -39t81 -12q78 0 134 39.5t56 109.5q0 38 -21.5 72t-58.5 42q26 14 39 39t13 54q0 61 -44.5 96t-112.5 35q-76 0 -125.5 -39t-56.5 -109h118q0 22 14.5 37t37.5 15q22 0 36 -12.5t14 -32.5q0 -23 -15.5 -36.5t-40.5 -13.5h-13z" />
    <glyph glyph-name="questiondown" unicode="&#xbf;" horiz-adv-x="595" 
d="M409 258h-183v-71q-82 -26 -131.5 -80.5t-49.5 -135.5q0 -48 23.5 -94t62.5 -79q36 -31 81.5 -46.5t93.5 -15.5q54 0 103 15.5t87.5 46t61 74.5t22.5 99h-199q0 -34 -18.5 -55t-51.5 -21q-31 0 -52 22t-21 53q0 46 40.5 72.5t88.5 26.5q19 0 42 -5v194zM314 532
q-49 0 -83 -34t-34 -83q0 -48 34 -82.5t83 -34.5t83 34.5t34 82.5q0 49 -34 83t-83 34z" />
    <glyph glyph-name="Agrave" unicode="&#xc0;" horiz-adv-x="781" 
d="M245 951l171 -151l81 59l-141 172zM526 131l49 -131h209l-284 754h-214l-290 -754h208l52 131h270zM473 281h-163l81 240h2z" />
    <glyph glyph-name="Aacute" unicode="&#xc1;" horiz-adv-x="781" 
d="M537 951l-111 80l-141 -172l81 -59zM526 131l49 -131h209l-284 754h-214l-290 -754h208l52 131h270zM473 281h-163l81 240h2z" />
    <glyph glyph-name="Acircumflex" unicode="&#xc2;" horiz-adv-x="781" 
d="M171 876l74 -84l144 111l144 -111l77 84l-221 164zM526 131l49 -131h209l-284 754h-214l-290 -754h208l52 131h270zM473 281h-163l81 240h2z" />
    <glyph glyph-name="Atilde" unicode="&#xc3;" horiz-adv-x="781" 
d="M274 827l1 4q5 16 11.5 24.5t21.5 8.5q23 0 73 -18q53 -19 79 -19q30 0 54 14t40 37t25 51t11 56h-85q-7 -19 -15 -27.5t-25 -8.5q-19 0 -72 16q-31 8 -52 13t-39 5q-27 0 -51 -16t-38 -40q-22 -37 -22 -89l1 -11h82zM526 131l49 -131h209l-284 754h-214l-290 -754h208
l52 131h270zM473 281h-163l81 240h2z" />
    <glyph glyph-name="Adieresis" unicode="&#xc4;" horiz-adv-x="781" 
d="M263 1011q-41 0 -70 -28.5t-29 -69.5t29 -69.5t70 -28.5t69.5 28.5t28.5 69.5q0 40 -29 69t-69 29zM519 1011q-41 0 -70 -28.5t-29 -69.5t29 -69.5t70 -28.5t69.5 28.5t28.5 69.5q0 40 -29 69t-69 29zM526 131l49 -131h209l-284 754h-214l-290 -754h208l52 131h270z
M473 281h-163l81 240h2z" />
    <glyph glyph-name="Aring" unicode="&#xc5;" horiz-adv-x="781" 
d="M389 1011q-29 0 -56.5 -6.5t-49 -20t-34 -36t-12.5 -53.5t13 -53.5t35.5 -35.5t49.5 -19t57 -6q29 0 56 6.5t48.5 20t34.5 35.5t13 53t-13 53.5t-35.5 36t-49.5 19.5t-57 6zM391 939q23 0 40.5 -10.5t17.5 -32.5t-17.5 -32.5t-40.5 -10.5q-24 0 -41.5 10.5t-17.5 32.5
t17.5 32.5t41.5 10.5zM526 131l49 -131h209l-284 754h-214l-290 -754h208l52 131h270zM473 281h-163l81 240h2z" />
    <glyph glyph-name="AE" unicode="&#xc6;" horiz-adv-x="1026" 
d="M470 281h-166l85 224zM572 0h454l-60 166h-248l-49 130h249l-63 166h-247l-46 126h248l-61 166h-462l-291 -754h207l47 131h273z" />
    <glyph glyph-name="Ccedilla" unicode="&#xc7;" horiz-adv-x="660" 
d="M603 736q-92 38 -179 38q-79 0 -155 -32.5t-132 -89.5q-54 -55 -82.5 -127t-28.5 -149q0 -86 30 -158t91 -127q59 -53 132 -82t151 -29q40 0 74.5 7.5t93.5 25.5l5 2v235q-31 -37 -76 -58.5t-93 -21.5q-91 0 -147.5 57.5t-56.5 147.5q0 44 14.5 82t41.5 66.5t64 44.5
t81 16q51 0 97 -21.5t75 -61.5v235zM469 -94l-99 64l-130 -158l78 -49z" />
    <glyph glyph-name="Egrave" unicode="&#xc8;" horiz-adv-x="550" 
d="M149 951l171 -151l81 59l-141 172zM493 588v166h-429v-754h429v166h-233v130h221v166h-221v126h233z" />
    <glyph glyph-name="Eacute" unicode="&#xc9;" horiz-adv-x="550" 
d="M401 951l-111 80l-141 -172l81 -59zM493 588v166h-429v-754h429v166h-233v130h221v166h-221v126h233z" />
    <glyph glyph-name="Ecircumflex" unicode="&#xca;" horiz-adv-x="550" 
d="M55 876l74 -84l144 111l144 -111l77 84l-221 164zM493 588v166h-429v-754h429v166h-233v130h221v166h-221v126h233z" />
    <glyph glyph-name="Edieresis" unicode="&#xcb;" horiz-adv-x="550" 
d="M147 1011q-41 0 -70 -28.5t-29 -69.5t29 -69.5t70 -28.5t69.5 28.5t28.5 69.5q0 40 -29 69t-69 29zM403 1011q-41 0 -70 -28.5t-29 -69.5t29 -69.5t70 -28.5t69.5 28.5t28.5 69.5q0 40 -29 69t-69 29zM493 588v166h-429v-754h429v166h-233v130h221v166h-221v126h233z" />
    <glyph glyph-name="Igrave" unicode="&#xcc;" horiz-adv-x="324" 
d="M21 951l171 -151l81 59l-141 172zM260 754h-196v-754h196v754z" />
    <glyph glyph-name="Iacute" unicode="&#xcd;" horiz-adv-x="324" 
d="M303 951l-111 80l-141 -172l81 -59zM260 754h-196v-754h196v754z" />
    <glyph glyph-name="Icircumflex" unicode="&#xce;" horiz-adv-x="324" 
d="M-43 876l74 -84l144 111l144 -111l77 84l-221 164zM260 754h-196v-754h196v754z" />
    <glyph glyph-name="Idieresis" unicode="&#xcf;" horiz-adv-x="324" 
d="M34 1011q-41 0 -70 -28.5t-29 -69.5t29 -69.5t70 -28.5t69.5 28.5t28.5 69.5q0 40 -29 69t-69 29zM290 1011q-41 0 -70 -28.5t-29 -69.5t29 -69.5t70 -28.5t69.5 28.5t28.5 69.5q0 40 -29 69t-69 29zM260 754h-196v-754h196v754z" />
    <glyph glyph-name="Eth" unicode="&#xd0;" horiz-adv-x="752" 
d="M260 588h46q97 0 156 -56t59 -155q0 -53 -17 -93.5t-47 -66.5t-69 -38.5t-84 -12.5h-44v143h110v154h-110v125zM64 0h256q85 0 159 27.5t129.5 78.5t86 120t30.5 151q0 81 -29.5 150.5t-84.5 120.5t-130 78.5t-163 27.5h-254v-291h-84v-154h84v-309z" />
    <glyph glyph-name="Ntilde" unicode="&#xd1;" horiz-adv-x="881" 
d="M324 827l1 4q5 16 11.5 24.5t21.5 8.5q23 0 73 -18q53 -19 79 -19q30 0 54 14t40 37t25 51t11 56h-85q-7 -19 -15 -27.5t-25 -8.5q-19 0 -72 16q-31 8 -52 13t-39 5q-27 0 -51 -16t-38 -40q-22 -37 -22 -89l1 -11h82zM64 0h196v462h2l359 -462h196v754h-196v-461h-2
l-359 461h-196v-754z" />
    <glyph glyph-name="Ograve" unicode="&#xd2;" horiz-adv-x="887" 
d="M298 951l171 -151l81 59l-141 172zM443 779q-81 0 -156.5 -28.5t-134.5 -81t-92.5 -124t-33.5 -154.5q0 -90 31 -166.5t87 -132.5t133 -86.5t166 -30.5t166 30.5t133 86t87 132.5t31 167q0 83 -33.5 154.5t-92.5 124t-134.5 81t-156.5 28.5zM443 589q43 0 82 -16
t68.5 -44t46 -64.5t16.5 -74.5q0 -48 -16.5 -89t-46 -72t-68.5 -47.5t-82 -16.5t-82 16.5t-68.5 47.5t-46 72t-16.5 89q0 38 16.5 74t46.5 64.5t68.5 44.5t81.5 16z" />
    <glyph glyph-name="Oacute" unicode="&#xd3;" horiz-adv-x="887" 
d="M590 951l-111 80l-141 -172l81 -59zM443 779q-81 0 -156.5 -28.5t-134.5 -81t-92.5 -124t-33.5 -154.5q0 -90 31 -166.5t87 -132.5t133 -86.5t166 -30.5t166 30.5t133 86t87 132.5t31 167q0 83 -33.5 154.5t-92.5 124t-134.5 81t-156.5 28.5zM443 589q43 0 82 -16
t68.5 -44t46 -64.5t16.5 -74.5q0 -48 -16.5 -89t-46 -72t-68.5 -47.5t-82 -16.5t-82 16.5t-68.5 47.5t-46 72t-16.5 89q0 38 16.5 74t46.5 64.5t68.5 44.5t81.5 16z" />
    <glyph glyph-name="Ocircumflex" unicode="&#xd4;" horiz-adv-x="887" 
d="M224 876l74 -84l144 111l144 -111l77 84l-221 164zM443 779q-81 0 -156.5 -28.5t-134.5 -81t-92.5 -124t-33.5 -154.5q0 -90 31 -166.5t87 -132.5t133 -86.5t166 -30.5t166 30.5t133 86t87 132.5t31 167q0 83 -33.5 154.5t-92.5 124t-134.5 81t-156.5 28.5zM443 589
q43 0 82 -16t68.5 -44t46 -64.5t16.5 -74.5q0 -48 -16.5 -89t-46 -72t-68.5 -47.5t-82 -16.5t-82 16.5t-68.5 47.5t-46 72t-16.5 89q0 38 16.5 74t46.5 64.5t68.5 44.5t81.5 16z" />
    <glyph glyph-name="Otilde" unicode="&#xd5;" horiz-adv-x="887" 
d="M327 827l1 4q5 16 11.5 24.5t21.5 8.5q23 0 73 -18q53 -19 79 -19q30 0 54 14t40 37t25 51t11 56h-85q-7 -19 -15 -27.5t-25 -8.5q-19 0 -72 16q-31 8 -52 13t-39 5q-27 0 -51 -16t-38 -40q-22 -37 -22 -89l1 -11h82zM443 779q-81 0 -156.5 -28.5t-134.5 -81t-92.5 -124
t-33.5 -154.5q0 -90 31 -166.5t87 -132.5t133 -86.5t166 -30.5t166 30.5t133 86t87 132.5t31 167q0 83 -33.5 154.5t-92.5 124t-134.5 81t-156.5 28.5zM443 589q43 0 82 -16t68.5 -44t46 -64.5t16.5 -74.5q0 -48 -16.5 -89t-46 -72t-68.5 -47.5t-82 -16.5t-82 16.5
t-68.5 47.5t-46 72t-16.5 89q0 38 16.5 74t46.5 64.5t68.5 44.5t81.5 16z" />
    <glyph glyph-name="Odieresis" unicode="&#xd6;" horiz-adv-x="887" 
d="M316 1011q-41 0 -70 -28.5t-29 -69.5t29 -69.5t70 -28.5t69.5 28.5t28.5 69.5q0 40 -29 69t-69 29zM572 1011q-41 0 -70 -28.5t-29 -69.5t29 -69.5t70 -28.5t69.5 28.5t28.5 69.5q0 40 -29 69t-69 29zM443 779q-81 0 -156.5 -28.5t-134.5 -81t-92.5 -124t-33.5 -154.5
q0 -90 31 -166.5t87 -132.5t133 -86.5t166 -30.5t166 30.5t133 86t87 132.5t31 167q0 83 -33.5 154.5t-92.5 124t-134.5 81t-156.5 28.5zM443 589q43 0 82 -16t68.5 -44t46 -64.5t16.5 -74.5q0 -48 -16.5 -89t-46 -72t-68.5 -47.5t-82 -16.5t-82 16.5t-68.5 47.5t-46 72
t-16.5 89q0 38 16.5 74t46.5 64.5t68.5 44.5t81.5 16z" />
    <glyph glyph-name="multiply" unicode="&#xd7;" 
d="M238 256l-151 -150l106 -106l150 150l150 -150l106 106l-150 150l149 151l-106 106l-149 -152l-150 152l-106 -106z" />
    <glyph glyph-name="Oslash" unicode="&#xd8;" horiz-adv-x="887" 
d="M260 275q-30 50 -30 115q0 38 16.5 74t46.5 64.5t68.5 44.5t81.5 16q57 0 107 -29zM630 481q26 -41 26 -91q0 -48 -16.5 -89t-46 -72t-68.5 -47.5t-82 -16.5q-59 0 -106 29zM21 40l78 -80l93 92q106 -77 251 -77q89 0 166 30.5t133 86t87 132.5t31 167q0 67 -22 126.5
t-62 107.5l90 89l-78 80l-95 -93q-55 38 -118.5 58t-131.5 20q-81 0 -156.5 -28.5t-134.5 -81t-92.5 -124t-33.5 -154.5q0 -76 22 -142t63 -120z" />
    <glyph glyph-name="Ugrave" unicode="&#xd9;" horiz-adv-x="778" 
d="M243 951l171 -151l81 59l-141 172zM522 754v-397q0 -46 -3.5 -79.5t-16.5 -62t-40.5 -46t-72.5 -17.5t-72.5 17.5t-40.5 46.5t-16.5 62t-3.5 79v397h-196v-424q0 -92 14.5 -154.5t64.5 -111.5q44 -44 111 -64t139 -20t139 20t111 64q50 49 64.5 111.5t14.5 154.5v424
h-196z" />
    <glyph glyph-name="Uacute" unicode="&#xda;" horiz-adv-x="778" 
d="M535 951l-111 80l-141 -172l81 -59zM522 754v-397q0 -46 -3.5 -79.5t-16.5 -62t-40.5 -46t-72.5 -17.5t-72.5 17.5t-40.5 46.5t-16.5 62t-3.5 79v397h-196v-424q0 -92 14.5 -154.5t64.5 -111.5q44 -44 111 -64t139 -20t139 20t111 64q50 49 64.5 111.5t14.5 154.5v424
h-196z" />
    <glyph glyph-name="Ucircumflex" unicode="&#xdb;" horiz-adv-x="778" 
d="M169 876l74 -84l144 111l144 -111l77 84l-221 164zM522 754v-397q0 -46 -3.5 -79.5t-16.5 -62t-40.5 -46t-72.5 -17.5t-72.5 17.5t-40.5 46.5t-16.5 62t-3.5 79v397h-196v-424q0 -92 14.5 -154.5t64.5 -111.5q44 -44 111 -64t139 -20t139 20t111 64q50 49 64.5 111.5
t14.5 154.5v424h-196z" />
    <glyph glyph-name="Udieresis" unicode="&#xdc;" horiz-adv-x="778" 
d="M261 1011q-41 0 -70 -28.5t-29 -69.5t29 -69.5t70 -28.5t69.5 28.5t28.5 69.5q0 40 -29 69t-69 29zM517 1011q-41 0 -70 -28.5t-29 -69.5t29 -69.5t70 -28.5t69.5 28.5t28.5 69.5q0 40 -29 69t-69 29zM522 754v-397q0 -46 -3.5 -79.5t-16.5 -62t-40.5 -46t-72.5 -17.5
t-72.5 17.5t-40.5 46.5t-16.5 62t-3.5 79v397h-196v-424q0 -92 14.5 -154.5t64.5 -111.5q44 -44 111 -64t139 -20t139 20t111 64q50 49 64.5 111.5t14.5 154.5v424h-196z" />
    <glyph glyph-name="Yacute" unicode="&#xdd;" horiz-adv-x="714" 
d="M523 951l-111 80l-141 -172l81 -59zM259 362v-362h196v362l278 392h-235l-141 -205l-141 205h-235z" />
    <glyph glyph-name="Thorn" unicode="&#xde;" horiz-adv-x="661" 
d="M64 0h196v130h111q131 0 199 62.5t68 193.5q0 125 -73.5 186.5t-200.5 61.5h-104v120h-196v-754zM260 476h33q36 0 59 -2t41.5 -11t29.5 -29t11 -54q0 -33 -11.5 -52t-31 -27.5t-41 -10.5t-57.5 -2h-33v188z" />
    <glyph glyph-name="germandbls" unicode="&#xdf;" horiz-adv-x="651" 
d="M60 442h-52v-145h52v-297h182v569q0 26 2 45t9.5 34.5t23 25t41.5 9.5q35 0 55.5 -20.5t20.5 -55.5q0 -41 -26 -61t-73 -20v-145q59 0 97 -34t38 -88q0 -56 -37 -88.5t-98 -32.5v-155h39q61 0 118 15.5t97 50.5q39 33 59.5 88.5t20.5 111.5q0 86 -36 134t-113 79
q45 34 67 70t22 87q0 105 -71 163t-178 58q-57 0 -109 -16t-89 -50q-37 -33 -49.5 -78.5t-12.5 -106.5v-147z" />
    <glyph glyph-name="agrave" unicode="&#xe0;" horiz-adv-x="682" 
d="M215 740l171 -151l81 59l-141 172zM328 372q54 0 85.5 -33.5t31.5 -82.5q0 -50 -31.5 -82.5t-85.5 -32.5t-85.5 32.5t-31.5 82.5q0 49 31.5 82.5t85.5 33.5zM621 513h-182v-50q-28 33 -70.5 50t-88.5 17q-56 0 -103 -21.5t-82 -59.5t-53.5 -87.5t-18.5 -104.5t19 -104.5
t54 -88t83 -60t103 -21.5q48 0 90 19t65 55h2v-57h182v513z" />
    <glyph glyph-name="aacute" unicode="&#xe1;" horiz-adv-x="682" 
d="M487 740l-111 80l-141 -172l81 -59zM328 372q54 0 85.5 -33.5t31.5 -82.5q0 -50 -31.5 -82.5t-85.5 -32.5t-85.5 32.5t-31.5 82.5q0 49 31.5 82.5t85.5 33.5zM621 513h-182v-50q-28 33 -70.5 50t-88.5 17q-56 0 -103 -21.5t-82 -59.5t-53.5 -87.5t-18.5 -104.5t19 -104.5
t54 -88t83 -60t103 -21.5q48 0 90 19t65 55h2v-57h182v513z" />
    <glyph glyph-name="acircumflex" unicode="&#xe2;" horiz-adv-x="682" 
d="M121 665l74 -84l144 111l144 -111l77 84l-221 164zM328 372q54 0 85.5 -33.5t31.5 -82.5q0 -50 -31.5 -82.5t-85.5 -32.5t-85.5 32.5t-31.5 82.5q0 49 31.5 82.5t85.5 33.5zM621 513h-182v-50q-28 33 -70.5 50t-88.5 17q-56 0 -103 -21.5t-82 -59.5t-53.5 -87.5
t-18.5 -104.5t19 -104.5t54 -88t83 -60t103 -21.5q48 0 90 19t65 55h2v-57h182v513z" />
    <glyph glyph-name="atilde" unicode="&#xe3;" horiz-adv-x="682" 
d="M225 616l1 4q5 16 11.5 24.5t21.5 8.5q23 0 73 -18q53 -19 79 -19q30 0 54 14t40 37t25 51t11 56h-85q-7 -19 -15 -27.5t-25 -8.5q-19 0 -72 16q-31 8 -52 13t-39 5q-27 0 -51 -16t-38 -40q-22 -37 -22 -89l1 -11h82zM328 372q54 0 85.5 -33.5t31.5 -82.5
q0 -50 -31.5 -82.5t-85.5 -32.5t-85.5 32.5t-31.5 82.5q0 49 31.5 82.5t85.5 33.5zM621 513h-182v-50q-28 33 -70.5 50t-88.5 17q-56 0 -103 -21.5t-82 -59.5t-53.5 -87.5t-18.5 -104.5t19 -104.5t54 -88t83 -60t103 -21.5q48 0 90 19t65 55h2v-57h182v513z" />
    <glyph glyph-name="adieresis" unicode="&#xe4;" horiz-adv-x="682" 
d="M213 800q-41 0 -70 -28.5t-29 -69.5t29 -69.5t70 -28.5t69.5 28.5t28.5 69.5q0 40 -29 69t-69 29zM469 800q-41 0 -70 -28.5t-29 -69.5t29 -69.5t70 -28.5t69.5 28.5t28.5 69.5q0 40 -29 69t-69 29zM328 372q54 0 85.5 -33.5t31.5 -82.5q0 -50 -31.5 -82.5t-85.5 -32.5
t-85.5 32.5t-31.5 82.5q0 49 31.5 82.5t85.5 33.5zM621 513h-182v-50q-28 33 -70.5 50t-88.5 17q-56 0 -103 -21.5t-82 -59.5t-53.5 -87.5t-18.5 -104.5t19 -104.5t54 -88t83 -60t103 -21.5q48 0 90 19t65 55h2v-57h182v513z" />
    <glyph glyph-name="aring" unicode="&#xe5;" horiz-adv-x="682" 
d="M340 815q-29 0 -56.5 -6.5t-49 -20t-34 -36t-12.5 -53.5t13 -53.5t35.5 -35.5t49.5 -19t57 -6q29 0 56 6.5t48.5 20t34.5 35.5t13 53t-13 53.5t-35.5 36t-49.5 19.5t-57 6zM342 743q23 0 40.5 -10.5t17.5 -32.5t-17.5 -32.5t-40.5 -10.5q-24 0 -41.5 10.5t-17.5 32.5
t17.5 32.5t41.5 10.5zM328 372q54 0 85.5 -33.5t31.5 -82.5q0 -50 -31.5 -82.5t-85.5 -32.5t-85.5 32.5t-31.5 82.5q0 49 31.5 82.5t85.5 33.5zM621 513h-182v-50q-28 33 -70.5 50t-88.5 17q-56 0 -103 -21.5t-82 -59.5t-53.5 -87.5t-18.5 -104.5t19 -104.5t54 -88t83 -60
t103 -21.5q48 0 90 19t65 55h2v-57h182v513z" />
    <glyph glyph-name="ae" unicode="&#xe6;" horiz-adv-x="940" 
d="M541 331q8 39 37.5 60t70.5 21q38 0 67 -22.5t36 -58.5h-211zM274 218q14 0 30.5 -2.5t32 -9t25 -17.5t9.5 -27q0 -14 -9.5 -25t-24 -17t-29.5 -9t-28 -3q-31 0 -56.5 13.5t-25.5 41.5t23.5 41.5t52.5 13.5zM918 226v19q0 132 -74 208.5t-207 76.5q-58 0 -111 -23.5
t-82 -67.5q-25 49 -77.5 70t-115.5 21q-35 0 -71.5 -6.5t-77.5 -17.5v-136q43 14 76 21t67 7q53 0 87.5 -20.5t34.5 -69.5v-15q-34 14 -66 20t-69 6q-42 0 -80 -10t-67.5 -30.5t-46.5 -53.5t-17 -77q0 -41 19 -72t50.5 -52t69.5 -31t76 -10q60 0 115.5 27t92.5 74
q12 -28 34 -47.5t50.5 -31.5t59.5 -17t62 -5q94 0 167 45t94 131h-175q-28 -47 -87 -47q-114 0 -114 114h383z" />
    <glyph glyph-name="ccedilla" unicode="&#xe7;" horiz-adv-x="483" 
d="M430 500q-54 30 -120 30q-60 0 -112.5 -20t-91.5 -57.5t-61 -89t-22 -112.5q0 -57 22 -106.5t60.5 -85.5t89.5 -56t107 -20q70 0 128 29v154q-18 -16 -42.5 -25.5t-48.5 -9.5q-56 0 -92 35.5t-36 90.5q0 53 36 89t89 36q25 0 48.5 -9.5t45.5 -26.5v154zM356 -94l-99 64
l-130 -158l78 -49z" />
    <glyph glyph-name="egrave" unicode="&#xe8;" horiz-adv-x="610" 
d="M154 740l171 -151l81 59l-141 172zM207 331q8 39 37.5 60t70.5 21q38 0 67 -22.5t36 -58.5h-211zM587 245q0 132 -74 208.5t-207 76.5q-62 0 -114.5 -18.5t-90.5 -54.5t-58.5 -87t-20.5 -114q0 -129 82.5 -201t214.5 -72q94 0 167 45t94 131h-175q-28 -47 -87 -47
q-114 0 -114 114h383v19z" />
    <glyph glyph-name="eacute" unicode="&#xe9;" horiz-adv-x="610" 
d="M456 740l-111 80l-141 -172l81 -59zM207 331q8 39 37.5 60t70.5 21q38 0 67 -22.5t36 -58.5h-211zM587 245q0 132 -74 208.5t-207 76.5q-62 0 -114.5 -18.5t-90.5 -54.5t-58.5 -87t-20.5 -114q0 -129 82.5 -201t214.5 -72q94 0 167 45t94 131h-175q-28 -47 -87 -47
q-114 0 -114 114h383v19z" />
    <glyph glyph-name="ecircumflex" unicode="&#xea;" horiz-adv-x="610" 
d="M85 665l74 -84l144 111l144 -111l77 84l-221 164zM207 331q8 39 37.5 60t70.5 21q38 0 67 -22.5t36 -58.5h-211zM587 245q0 132 -74 208.5t-207 76.5q-62 0 -114.5 -18.5t-90.5 -54.5t-58.5 -87t-20.5 -114q0 -129 82.5 -201t214.5 -72q94 0 167 45t94 131h-175
q-28 -47 -87 -47q-114 0 -114 114h383v19z" />
    <glyph glyph-name="edieresis" unicode="&#xeb;" horiz-adv-x="610" 
d="M177 800q-41 0 -70 -28.5t-29 -69.5t29 -69.5t70 -28.5t69.5 28.5t28.5 69.5q0 40 -29 69t-69 29zM433 800q-41 0 -70 -28.5t-29 -69.5t29 -69.5t70 -28.5t69.5 28.5t28.5 69.5q0 40 -29 69t-69 29zM207 331q8 39 37.5 60t70.5 21q38 0 67 -22.5t36 -58.5h-211zM587 245
q0 132 -74 208.5t-207 76.5q-62 0 -114.5 -18.5t-90.5 -54.5t-58.5 -87t-20.5 -114q0 -129 82.5 -201t214.5 -72q94 0 167 45t94 131h-175q-28 -47 -87 -47q-114 0 -114 114h383v19z" />
    <glyph glyph-name="igrave" unicode="&#xec;" horiz-adv-x="302" 
d="M10 740l171 -151l81 59l-141 172zM242 513h-182v-513h182v513z" />
    <glyph glyph-name="iacute" unicode="&#xed;" horiz-adv-x="302" 
d="M292 740l-111 80l-141 -172l81 -59zM242 513h-182v-513h182v513z" />
    <glyph glyph-name="icircumflex" unicode="&#xee;" horiz-adv-x="302" 
d="M-69 665l74 -84l144 111l144 -111l77 84l-221 164zM242 513h-182v-513h182v513z" />
    <glyph glyph-name="idieresis" unicode="&#xef;" horiz-adv-x="302" 
d="M23 800q-41 0 -70 -28.5t-29 -69.5t29 -69.5t70 -28.5t69.5 28.5t28.5 69.5q0 40 -29 69t-69 29zM279 800q-41 0 -70 -28.5t-29 -69.5t29 -69.5t70 -28.5t69.5 28.5t28.5 69.5q0 40 -29 69t-69 29zM242 513h-182v-513h182v513z" />
    <glyph glyph-name="eth" unicode="&#xf0;" horiz-adv-x="662" 
d="M41 744q56 -24 113 -60l-109 -58l66 -71l130 69q31 -24 60 -53t53 -59q-34 6 -59 6q-51 0 -99.5 -18t-88 -52t-62.5 -83.5t-23 -109.5q0 -68 28 -120.5t73.5 -86t98.5 -49.5t103 -16q62 0 118 18.5t100.5 57t70.5 98.5t26 140q0 69 -19.5 126.5t-53.5 105t-74.5 87
t-99.5 88.5l104 55l-65 73l-127 -67q-12 8 -23 15t-27 15.5t-41 21t-67 31.5zM331 372q54 0 85.5 -33.5t31.5 -82.5q0 -50 -31.5 -82.5t-85.5 -32.5t-85.5 32.5t-31.5 82.5q0 49 31.5 82.5t85.5 33.5z" />
    <glyph glyph-name="ntilde" unicode="&#xf1;" horiz-adv-x="661" 
d="M214 616l1 4q5 16 11.5 24.5t21.5 8.5q23 0 73 -18q53 -19 79 -19q30 0 54 14t40 37t25 51t11 56h-85q-7 -19 -15 -27.5t-25 -8.5q-19 0 -72 16q-31 8 -52 13t-39 5q-27 0 -51 -16t-38 -40q-22 -37 -22 -89l1 -11h82zM242 513h-182v-513h182v266q0 54 22 86.5t73 32.5
q28 0 44.5 -10.5t24.5 -28.5t10.5 -41t2.5 -55v-250h182v317q0 100 -47 156.5t-146 56.5q-55 0 -94 -19t-70 -64h-2v66z" />
    <glyph glyph-name="ograve" unicode="&#xf2;" horiz-adv-x="662" 
d="M180 740l171 -151l81 59l-141 172zM331 530q-62 0 -118 -18.5t-99 -53.5t-67.5 -86.5t-24.5 -115.5t24.5 -115t67.5 -86.5t99 -53.5t118 -18t118.5 18.5t99 53.5t67 86.5t24.5 114.5q0 64 -24.5 115.5t-67.5 86.5t-99 53.5t-118 18.5zM331 372q54 0 85.5 -33.5
t31.5 -82.5q0 -50 -31.5 -82.5t-85.5 -32.5t-85.5 32.5t-31.5 82.5q0 49 31.5 82.5t85.5 33.5z" />
    <glyph glyph-name="oacute" unicode="&#xf3;" horiz-adv-x="662" 
d="M482 740l-111 80l-141 -172l81 -59zM331 530q-62 0 -118 -18.5t-99 -53.5t-67.5 -86.5t-24.5 -115.5t24.5 -115t67.5 -86.5t99 -53.5t118 -18t118.5 18.5t99 53.5t67 86.5t24.5 114.5q0 64 -24.5 115.5t-67.5 86.5t-99 53.5t-118 18.5zM331 372q54 0 85.5 -33.5
t31.5 -82.5q0 -50 -31.5 -82.5t-85.5 -32.5t-85.5 32.5t-31.5 82.5q0 49 31.5 82.5t85.5 33.5z" />
    <glyph glyph-name="ocircumflex" unicode="&#xf4;" horiz-adv-x="662" 
d="M111 665l74 -84l144 111l144 -111l77 84l-221 164zM331 530q-62 0 -118 -18.5t-99 -53.5t-67.5 -86.5t-24.5 -115.5t24.5 -115t67.5 -86.5t99 -53.5t118 -18t118.5 18.5t99 53.5t67 86.5t24.5 114.5q0 64 -24.5 115.5t-67.5 86.5t-99 53.5t-118 18.5zM331 372
q54 0 85.5 -33.5t31.5 -82.5q0 -50 -31.5 -82.5t-85.5 -32.5t-85.5 32.5t-31.5 82.5q0 49 31.5 82.5t85.5 33.5z" />
    <glyph glyph-name="otilde" unicode="&#xf5;" horiz-adv-x="662" 
d="M215 616l1 4q5 16 11.5 24.5t21.5 8.5q23 0 73 -18q53 -19 79 -19q30 0 54 14t40 37t25 51t11 56h-85q-7 -19 -15 -27.5t-25 -8.5q-19 0 -72 16q-31 8 -52 13t-39 5q-27 0 -51 -16t-38 -40q-22 -37 -22 -89l1 -11h82zM331 530q-62 0 -118 -18.5t-99 -53.5t-67.5 -86.5
t-24.5 -115.5t24.5 -115t67.5 -86.5t99 -53.5t118 -18t118.5 18.5t99 53.5t67 86.5t24.5 114.5q0 64 -24.5 115.5t-67.5 86.5t-99 53.5t-118 18.5zM331 372q54 0 85.5 -33.5t31.5 -82.5q0 -50 -31.5 -82.5t-85.5 -32.5t-85.5 32.5t-31.5 82.5q0 49 31.5 82.5t85.5 33.5z" />
    <glyph glyph-name="odieresis" unicode="&#xf6;" horiz-adv-x="662" 
d="M203 800q-41 0 -70 -28.5t-29 -69.5t29 -69.5t70 -28.5t69.5 28.5t28.5 69.5q0 40 -29 69t-69 29zM459 800q-41 0 -70 -28.5t-29 -69.5t29 -69.5t70 -28.5t69.5 28.5t28.5 69.5q0 40 -29 69t-69 29zM331 530q-62 0 -118 -18.5t-99 -53.5t-67.5 -86.5t-24.5 -115.5
t24.5 -115t67.5 -86.5t99 -53.5t118 -18t118.5 18.5t99 53.5t67 86.5t24.5 114.5q0 64 -24.5 115.5t-67.5 86.5t-99 53.5t-118 18.5zM331 372q54 0 85.5 -33.5t31.5 -82.5q0 -50 -31.5 -82.5t-85.5 -32.5t-85.5 32.5t-31.5 82.5q0 49 31.5 82.5t85.5 33.5z" />
    <glyph glyph-name="divide" unicode="&#xf7;" 
d="M87 332v-150h512v150h-512zM343 127q-30 0 -51 -21t-21 -51t21 -51t51 -21t51 21t21 51t-21 51t-51 21zM343 531q-30 0 -51 -21t-21 -51t21 -51t51 -21t51 21t21 51t-21 51t-51 21z" />
    <glyph glyph-name="oslash" unicode="&#xf8;" horiz-adv-x="662" 
d="M221 214q-7 17 -7 42q0 49 31.5 82.5t85.5 33.5q22 0 43 -7zM441 299q7 -20 7 -43q0 -50 -31.5 -82.5t-85.5 -32.5q-25 0 -43 7zM21 16l70 -63l71 70q74 -40 169 -40q62 0 118.5 18.5t99 53.5t67 86.5t24.5 114.5q0 103 -65 176l66 66l-70 62l-71 -70q-75 40 -169 40
q-62 0 -118 -18.5t-99 -53.5t-67.5 -86.5t-24.5 -115.5q0 -104 65 -175z" />
    <glyph glyph-name="ugrave" unicode="&#xf9;" horiz-adv-x="659" 
d="M174 740l171 -151l81 59l-141 172zM57 513v-309q0 -62 20.5 -104.5t57 -68t86 -37t109.5 -11.5t109.5 11.5t86 36.5t57 68t20.5 105v309h-182v-274q0 -54 -19.5 -82.5t-71.5 -28.5t-71.5 28.5t-19.5 82.5v274h-182z" />
    <glyph glyph-name="uacute" unicode="&#xfa;" horiz-adv-x="659" 
d="M486 740l-111 80l-141 -172l81 -59zM57 513v-309q0 -62 20.5 -104.5t57 -68t86 -37t109.5 -11.5t109.5 11.5t86 36.5t57 68t20.5 105v309h-182v-274q0 -54 -19.5 -82.5t-71.5 -28.5t-71.5 28.5t-19.5 82.5v274h-182z" />
    <glyph glyph-name="ucircumflex" unicode="&#xfb;" horiz-adv-x="659" 
d="M110 665l74 -84l144 111l144 -111l77 84l-221 164zM57 513v-309q0 -62 20.5 -104.5t57 -68t86 -37t109.5 -11.5t109.5 11.5t86 36.5t57 68t20.5 105v309h-182v-274q0 -54 -19.5 -82.5t-71.5 -28.5t-71.5 28.5t-19.5 82.5v274h-182z" />
    <glyph glyph-name="udieresis" unicode="&#xfc;" horiz-adv-x="659" 
d="M202 800q-41 0 -70 -28.5t-29 -69.5t29 -69.5t70 -28.5t69.5 28.5t28.5 69.5q0 40 -29 69t-69 29zM458 800q-41 0 -70 -28.5t-29 -69.5t29 -69.5t70 -28.5t69.5 28.5t28.5 69.5q0 40 -29 69t-69 29zM57 513v-309q0 -62 20.5 -104.5t57 -68t86 -37t109.5 -11.5t109.5 11.5
t86 36.5t57 68t20.5 105v309h-182v-274q0 -54 -19.5 -82.5t-71.5 -28.5t-71.5 28.5t-19.5 82.5v274h-182z" />
    <glyph glyph-name="yacute" unicode="&#xfd;" horiz-adv-x="654" 
d="M493 740l-111 80l-141 -172l81 -59zM233 70l-175 -326h204l411 769h-207l-134 -263l-137 263h-210z" />
    <glyph glyph-name="thorn" unicode="&#xfe;" horiz-adv-x="682" 
d="M236 830h-182v-1086h182v305q28 -32 70.5 -49t88.5 -17q56 0 103.5 21t82 59t53 87.5t18.5 104.5t-19 105t-53.5 88.5t-82.5 60t-104 21.5q-47 0 -89 -19t-66 -56h-2v375zM347 372q54 0 85.5 -33.5t31.5 -82.5q0 -50 -31.5 -82.5t-85.5 -32.5t-85.5 32.5t-31.5 82.5
q0 49 31.5 82.5t85.5 33.5z" />
    <glyph glyph-name="ydieresis" unicode="&#xff;" horiz-adv-x="654" 
d="M214 800q-41 0 -70 -28.5t-29 -69.5t29 -69.5t70 -28.5t69.5 28.5t28.5 69.5q0 40 -29 69t-69 29zM470 800q-41 0 -70 -28.5t-29 -69.5t29 -69.5t70 -28.5t69.5 28.5t28.5 69.5q0 40 -29 69t-69 29zM233 70l-175 -326h204l411 769h-207l-134 -263l-137 263h-210z" />
    <glyph glyph-name="OE" unicode="&#x152;" horiz-adv-x="1140" 
d="M660 0h424v166h-229v130h213v166h-213v126h229v166h-424v-69q-94 94 -240 94q-79 0 -151 -32t-126.5 -88.5t-85.5 -129.5t-31 -152t31 -152t85.5 -129.5t126.5 -88.5t151 -32q73 0 131 26t109 82v-83zM441 589q43 0 81.5 -16t67.5 -46t45 -68.5t16 -81.5t-16 -81.5
t-45 -68t-67.5 -46t-81.5 -16.5t-81.5 16.5t-67.5 46t-45.5 68t-16.5 81.5t16.5 81.5t45.5 68t67.5 46t81.5 16.5z" />
    <glyph glyph-name="oe" unicode="&#x153;" horiz-adv-x="1022" 
d="M618 331q8 39 37.5 60t70.5 21q38 0 67 -22.5t36 -58.5h-211zM330 372q48 0 82.5 -34.5t34.5 -81.5q0 -48 -34.5 -81.5t-82.5 -33.5t-82.5 33.5t-34.5 81.5q0 47 34.5 81.5t82.5 34.5zM1001 245q0 132 -74 208.5t-207 76.5q-60 0 -112 -18t-83 -59q-45 43 -94 60t-116 17
q-62 0 -115.5 -18.5t-94 -54.5t-62.5 -87t-22 -114q0 -65 22 -116t62.5 -86t94.5 -53t117 -18q68 0 116.5 20t91.5 69q34 -48 85.5 -68.5t122.5 -20.5q94 0 167 45t94 131h-175q-28 -47 -87 -47q-114 0 -114 114h383v19z" />
    <glyph glyph-name="Scaron" unicode="&#x160;" horiz-adv-x="616" 
d="M88 955l218 -163l221 163l-77 85l-144 -112l-144 112zM556 712q-50 28 -114 45t-122 17q-56 0 -104 -18t-83 -51.5t-54 -80t-19 -103.5q0 -53 14 -88.5t40.5 -58t60.5 -36.5t89 -30q2 -1 6 -2q23 -6 40.5 -12t34.5 -16t27.5 -23.5t10.5 -32.5q0 -37 -28 -56.5t-67 -19.5
q-47 0 -90 21t-84 57l-84 -158q58 -41 126.5 -63.5t138.5 -22.5q60 0 116 17.5t98 53.5t60 88.5t18 114.5q0 44 -13.5 78t-39 58t-58.5 41t-75 29l-50 15v0q-39 13 -63 28t-24 44t26.5 46t57.5 17q35 0 68.5 -13.5t61.5 -36.5z" />
    <glyph glyph-name="scaron" unicode="&#x161;" horiz-adv-x="513" 
d="M37 744l218 -163l221 163l-77 85l-144 -112l-144 112zM460 497q-73 33 -169 33q-43 0 -83.5 -11t-73 -33.5t-51 -57.5t-18.5 -80q0 -33 9.5 -56.5t25 -38.5t35 -24t44.5 -16q12 -3 35 -8q41 -9 60 -18.5t19 -30.5q0 -19 -18 -29t-39 -10q-32 0 -73 15.5t-71 36.5
l-66 -127q47 -29 99.5 -44t107.5 -15q46 0 89.5 11.5t78 34.5t54.5 59.5t20 85.5q0 67 -39.5 102.5t-109.5 49.5l-10 2q-32 6 -52 14.5t-20 28.5q0 17 18.5 26t38.5 9q23 0 50 -7t48 -18z" />
    <glyph glyph-name="Ydieresis" unicode="&#x178;" horiz-adv-x="714" 
d="M239 1011q-41 0 -70 -28.5t-29 -69.5t29 -69.5t70 -28.5t69.5 28.5t28.5 69.5q0 40 -29 69t-69 29zM495 1011q-41 0 -70 -28.5t-29 -69.5t29 -69.5t70 -28.5t69.5 28.5t28.5 69.5q0 40 -29 69t-69 29zM259 362v-362h196v362l278 392h-235l-141 -205l-141 205h-235z" />
    <glyph glyph-name="florin" unicode="&#x192;" 
d="M471 505l10 55l1 8q4 22 8 38t11.5 30.5t21 23.5t32.5 9t39.5 -8.5t38.5 -21.5l29 157q-27 19 -60 26.5t-70 7.5q-100 0 -162 -69q-27 -30 -39.5 -63t-22.5 -85l-20 -108h-88l-12 -76h86l-42 -233q-1 -6 -2 -11q-8 -46 -15 -77.5t-17 -55.5q-16 -37 -39.5 -52.5
t-63.5 -15.5q-21 0 -61 7l-10 2l-30 -165l106 -9q4 0 15 -1h14q60 0 107 23.5t86 73.5q37 47 54 101t31 134l51 279h110l13 76h-110z" />
    <glyph glyph-name="circumflex" unicode="&#x2c6;" horiz-adv-x="590" 
d="M75 665l74 -84l144 111l144 -111l77 84l-221 164z" />
    <glyph glyph-name="tilde" unicode="&#x2dc;" horiz-adv-x="549" 
d="M158 616l1 4q5 16 11.5 24.5t21.5 8.5q23 0 73 -18q53 -19 79 -19q30 0 54 14t40 37t25 51t11 56h-85q-7 -19 -15 -27.5t-25 -8.5q-19 0 -72 16q-31 8 -52 13t-39 5q-27 0 -51 -16t-38 -40q-22 -37 -22 -89l1 -11h82z" />
    <glyph glyph-name="endash" unicode="&#x2013;" horiz-adv-x="500" 
d="M0 396v-150h500v150h-500z" />
    <glyph glyph-name="emdash" unicode="&#x2014;" horiz-adv-x="1000" 
d="M130 396v-150h740v150h-740z" />
    <glyph glyph-name="quoteleft" unicode="&#x2018;" horiz-adv-x="372" 
d="M189 423l130 331h-116l-184 -331h170z" />
    <glyph glyph-name="quoteright" unicode="&#x2019;" horiz-adv-x="372" 
d="M183 754l-130 -331h116l184 331h-170z" />
    <glyph glyph-name="quotesinglbase" unicode="&#x201a;" horiz-adv-x="338" 
d="M149 191l-130 -331h116l184 331h-170z" />
    <glyph glyph-name="quotedblleft" unicode="&#x201c;" horiz-adv-x="628" 
d="M445 423l130 331h-116l-184 -331h170zM189 423l130 331h-116l-184 -331h170z" />
    <glyph glyph-name="quotedblright" unicode="&#x201d;" horiz-adv-x="628" 
d="M183 754l-130 -331h116l184 331h-170zM439 754l-130 -331h116l184 331h-170z" />
    <glyph glyph-name="quotedblbase" unicode="&#x201e;" horiz-adv-x="594" 
d="M149 191l-130 -331h116l184 331h-170zM405 191l-130 -331h116l184 331h-170z" />
    <glyph glyph-name="dagger" unicode="&#x2020;" 
d="M260 754v-205h-176v-144h176v-585h166v585h177v144h-177v205h-166z" />
    <glyph glyph-name="daggerdbl" unicode="&#x2021;" 
d="M261 754v-185h-177v-144h177v-142h-177v-144h177v-318h166v318h176v144h-176v142h176v144h-176v185h-166z" />
    <glyph glyph-name="bullet" unicode="&#x2022;" 
d="M344 566q-40 0 -74.5 -14.5t-60.5 -40.5t-40 -60.5t-14 -73.5q0 -38 14 -72.5t40 -60.5t60.5 -40.5t74.5 -14.5t74.5 14.5t60 40.5t39.5 60.5t14 72.5q0 39 -14 73.5t-39.5 60.5t-60 40.5t-74.5 14.5z" />
    <glyph glyph-name="ellipsis" unicode="&#x2026;" horiz-adv-x="1000" 
d="M500 214q-49 0 -83 -34t-34 -83q0 -48 34 -82.5t83 -34.5t83 34.5t34 82.5q0 49 -34 83t-83 34zM833 214q-49 0 -83 -34t-34 -83q0 -48 34 -82.5t83 -34.5t83 34.5t34 82.5q0 49 -34 83t-83 34zM167 214q-49 0 -83 -34t-34 -83q0 -48 34 -82.5t83 -34.5t83 34.5t34 82.5
q0 49 -34 83t-83 34z" />
    <glyph glyph-name="perthousand" unicode="&#x2030;" horiz-adv-x="1460" 
d="M225 764q-88 0 -147 -48t-59 -135q0 -88 58 -137t148 -49t148 49t58 137q0 87 -59 135t-147 48zM225 664q35 0 60 -25t25 -60t-25 -59.5t-60 -24.5t-60 24.5t-25 59.5t25 60t60 25zM657 754l-438 -754h98l438 754h-98zM750 359q-88 0 -147 -48t-59 -135q0 -88 58 -137
t148 -49t148 49t58 137q0 87 -59 135t-147 48zM750 259q35 0 60 -25t25 -60t-25 -59.5t-60 -24.5t-60 24.5t-25 59.5t25 60t60 25zM1235 359q-88 0 -147 -48t-59 -135q0 -88 58 -137t148 -49t148 49t58 137q0 87 -59 135t-147 48zM1235 259q35 0 60 -25t25 -60t-25 -59.5
t-60 -24.5t-60 24.5t-25 59.5t25 60t60 25z" />
    <glyph glyph-name="guilsinglleft" unicode="&#x2039;" horiz-adv-x="354" 
d="M172 320l126 177l-100 69l-172 -246l172 -246l103 72z" />
    <glyph glyph-name="guilsinglright" unicode="&#x203a;" horiz-adv-x="354" 
d="M53 146l103 -72l172 246l-172 246l-100 -69l126 -177z" />
    <glyph glyph-name="trademark" unicode="&#x2122;" horiz-adv-x="940" 
d="M899 754h-142l-91 -239l-91 239h-142v-404h88v326h2l117 -326h52l117 326h2v-326h88v404zM384 754h-343v-78h123v-326h97v326h123v78z" />
    </font>
</defs>
</svg>
